<?xml version="1.0" standalone="no"?>
<!DOCTYPE svg PUBLIC "-//W3C//DTD SVG 1.1//EN" "http://www.w3.org/Graphics/SVG/1.1/DTD/svg11.dtd">
<svg xmlns="http://www.w3.org/2000/svg">
<defs >
<font id="FiraSans" horiz-adv-x="529" ><font-face
    font-family="Fira Sans"
    units-per-em="1000"
    panose-1="2 11 5 3 5 0 0 2 0 4"
    ascent="1050"
    descent="-500"
    alphabetic="0" />
<glyph unicode=" " glyph-name="space" horiz-adv-x="259" />
<glyph unicode="!" glyph-name="exclam" horiz-adv-x="235" d="M71 230L126 689H227L152 230H71ZM125 127T142 109T160 64Q160 32 138 10T85 -12Q58 -12 41 6T23 51Q23 83 44 105T97 127Q125 127 142 109Z" />
<glyph unicode="&quot;" glyph-name="quotedbl" horiz-adv-x="393" d="M396 689L344 427H275L298 689H396ZM216 689L164 427H95L118 689H216Z" />
<glyph unicode="#" glyph-name="numbersign" horiz-adv-x="512" d="M390 232H457L447 163H371L327 0H249L293 163H141L97 0H20L64 163H0L10 232H83L141 447H77L87 517H160L201 669H279L238 517H390L431 669H508L467 517H534L524 447H448L390 232ZM219 447L160
232H312L371 447H219Z" />
<glyph unicode="$" glyph-name="dollar" horiz-adv-x="523" d="M383 362T430 319T477 201Q477 155 456 110T387 32T261 -10L241 -155H162L182 -11Q67 -1 -1 77L58 132Q117 64 216 64Q288 64 335 97T382 201Q382 236 354 263T258 314Q84 368 84 494Q84 572 138
621T279 678L300 824H379L358 677Q403 671 439 652T511 600L454 546Q391 604 316 604Q255 604 216 579T177 498Q177 460 204 436T303 387Q383 362 430 319Z" />
<glyph unicode="%" glyph-name="percent" horiz-adv-x="820" d="M173 -31L114 11L670 711L729 669L173 -31ZM324 679T363 640T403 539Q403 494 385 449T325 372T221 341Q158 341 119 380T79 484Q79 529 98 574T158 649T260 679Q324 679 363 640ZM204 617T181 574T158
484Q158 403 222 403Q278 403 300 447T323 539Q323 617 260 617Q204 617 181 574ZM682 326T721 287T761 186Q761 141 743 96T683 19T579 -12Q516 -12 477 27T437 131Q437 176 456 221T516 296T618 326Q682 326 721 287ZM562 264T539 221T516 131Q516 50 580 50Q636
50 658 94T681 186Q681 264 618 264Q562 264 539 221Z" />
<glyph unicode="&amp;" glyph-name="ampersand" horiz-adv-x="757" d="M396 701T436 682T499 631T522 560Q522 514 500 480T443 421T353 367L505 200Q556 280 584 355L666 325Q617 223 557 144L652 40L582 -12L499 82Q450 35 394 12T268 -12Q209 -12 166 11T99
75T76 165Q76 229 109 278T232 380Q195 422 176 458T157 534Q157 609 207 655T347 701Q396 701 436 682ZM299 633T273 606T246 534Q246 503 260 475T303 417Q369 454 401 485T433 560Q433 592 409 612T347 633Q299 633 273 606ZM211 286T190 250T169 169Q169 123
199 92T281 61Q328 61 369 80T450 136L278 326Q211 286 190 250Z" />
<glyph unicode="&apos;" glyph-name="quotesingle" horiz-adv-x="213" d="M216 689L164 427H95L118 689H216Z" />
<glyph unicode="(" glyph-name="parenleft" horiz-adv-x="318" d="M295 726T256 665T188 527T144 345Q135 276 135 220Q135 126 157 54T227 -109L167 -143Q123 -65 100 -16T60 98T43 240Q43 299 51 355Q66 465 101 549T181 693T303 847L357 803Q295 726 256 665Z" />
<glyph unicode=")" glyph-name="parenright" horiz-adv-x="318" d="M219 766T243 717T283 603T300 460Q300 408 291 345Q276 235 241 151T161 7T39 -147L-15 -103Q48 -26 87 35T155 174T198 355Q208 424 208 484Q208 577 185 648T115 809L175 843Q219 766 243 717Z" />
<glyph unicode="*" glyph-name="asterisk" horiz-adv-x="433" d="M386 412L309 359L249 492L153 359L88 411L207 528L60 561L96 641L231 581L237 739H330L292 582L438 644L456 561L299 527L386 412Z" />
<glyph unicode="+" glyph-name="plus" horiz-adv-x="493" d="M447 369L436 293H292L271 144H187L208 293H65L76 369H219L240 519H324L303 369H447Z" />
<glyph unicode="," glyph-name="comma" horiz-adv-x="241" d="M125 127T143 109T161 64Q161 46 155 29T135 -15L47 -166H-20L45 2Q24 20 24 51Q24 82 45 104T98 127Q125 127 143 109Z" />
<glyph unicode="-" glyph-name="hyphen" horiz-adv-x="397" d="M351 352L340 274H59L70 352H351Z" />
<glyph unicode="." glyph-name="period" horiz-adv-x="240" d="M125 127T142 109T160 64Q160 32 138 10T85 -12Q58 -12 41 6T23 51Q23 83 44 105T97 127Q125 127 142 109Z" />
<glyph unicode="/" glyph-name="slash" horiz-adv-x="514" d="M130 -104L53 -83L408 809L485 789L130 -104Z" />
<glyph unicode="0" glyph-name="zero" horiz-adv-x="552" d="M420 679T467 617T515 438Q515 334 489 232T402 59T242 -12Q150 -12 103 50T56 229Q56 333 82 436T168 609T328 679Q420 679 467 617ZM263 606T221 540T158 329Q149 260 149 212Q149 133 172 97T244
61Q309 61 351 127T414 339Q423 407 423 455Q423 534 400 570T328 606Q263 606 221 540Z" />
<glyph unicode="1" glyph-name="one" horiz-adv-x="427" d="M190 0L270 562L103 467L72 541L295 669H376L282 0H190Z" />
<glyph unicode="2" glyph-name="two" horiz-adv-x="489" d="M363 679T412 633T462 511Q462 456 434 403T333 274T117 75L414 77L392 0H1L11 75Q173 224 244 297T341 415T367 508Q367 554 342 578T272 603Q230 603 196 585T124 528L66 581Q114 631 166 655T279
679Q363 679 412 633Z" />
<glyph unicode="3" glyph-name="three" horiz-adv-x="493" d="M360 679T407 635T454 522Q454 466 417 419T302 354Q358 349 394 313T430 216Q430 165 404 113T320 24T178 -12Q117 -12 69 11T-11 80L49 130Q74 95 106 79T178 63Q249 63 293 109T337 227Q337 275
308 294T221 314H169L190 385H222Q267 385 299 406T346 458T362 520Q362 560 338 582T269 605Q229 605 195 590T122 543L77 601Q171 679 276 679Q360 679 407 635Z" />
<glyph unicode="4" glyph-name="four" horiz-adv-x="526" d="M397 165L374 0H285L308 165H25L34 231L292 679L369 647L135 238H319L353 418H433L408 238H493L483 165H397Z" />
<glyph unicode="5" glyph-name="five" horiz-adv-x="495" d="M204 597L174 401Q227 426 282 426Q359 426 402 379T446 245Q446 187 419 128T334 28T188 -12Q125 -12 80 10T0 75L60 126Q85 93 116 78T190 63Q247 63 283 92T336 164T353 247Q353 355 252 355Q225
355 203 350T152 331L80 332L127 669H485L463 597H204Z" />
<glyph unicode="6" glyph-name="six" horiz-adv-x="525" d="M393 440T438 395T483 264Q483 204 457 140T375 32T241 -12Q144 -12 99 49T53 221Q53 270 60 319Q75 427 116 508T219 634T357 679Q433 679 490 637L449 577Q408 606 354 606Q282 606 230 538T157 356Q230
440 324 440Q393 440 438 395ZM297 61T330 95T378 176T392 267Q392 367 306 367Q262 367 220 341T146 271Q141 228 141 200Q141 129 166 95T244 61Q297 61 330 95Z" />
<glyph unicode="7" glyph-name="seven" horiz-adv-x="438" d="M126 -10L43 18L362 594H70L81 669H466L457 600L126 -10Z" />
<glyph unicode="8" glyph-name="eight" horiz-adv-x="545" d="M490 304T490 202Q490 141 457 92T365 16T236 -12Q142 -12 87 36T31 162Q31 223 66 271T187 354Q105 401 105 493Q105 553 136 595T218 658T325 679Q374 679 416 662T484 609T510 525Q510 467 478
428T375 357Q490 304 490 202ZM257 610T225 575T193 494Q193 451 218 428T299 386L313 382Q376 415 398 449T421 524Q421 565 397 587T326 610Q257 610 225 575ZM310 61T353 101T397 206Q397 245 369 269T271 320L249 327Q125 273 125 163Q125 115 155 88T240 61Q310
61 353 101Z" />
<glyph unicode="9" glyph-name="nine" horiz-adv-x="519" d="M398 679T447 622T496 466Q496 356 464 264T340 95T80 -23L65 48Q200 85 281 149T383 318Q356 284 317 264T231 243Q185 243 148 265T90 329T69 424Q69 488 94 546T173 641T305 679Q398 679 447 622ZM332
315T398 403Q405 444 405 477Q405 606 307 606Q228 606 194 549T159 420Q159 369 183 342T249 315Q332 315 398 403Z" />
<glyph unicode=":" glyph-name="colon" horiz-adv-x="240" d="M125 127T142 109T160 64Q160 32 138 10T85 -12Q58 -12 41 6T23 51Q23 83 44 105T97 127Q125 127 142 109ZM177 495T194 477T212 432Q212 400 190 378T137 356Q110 356 93 374T75 419Q75 451 96 473T149
495Q177 495 194 477Z" />
<glyph unicode=";" glyph-name="semicolon" horiz-adv-x="244" d="M125 127T143 109T161 64Q161 46 155 29T135 -15L47 -166H-20L45 2Q24 20 24 51Q24 82 45 104T98 127Q125 127 143 109ZM181 495T198 477T216 432Q216 400 194 378T141 356Q114 356 97 374T79
419Q79 451 100 473T153 495Q181 495 198 477Z" />
<glyph unicode="&lt;" glyph-name="less" horiz-adv-x="496" d="M132 331L436 189L393 115L53 286L66 380L452 551L480 472L132 331Z" />
<glyph unicode="=" glyph-name="equal" horiz-adv-x="494" d="M461 466L450 389H78L89 466H461ZM690 529L679 452H307L318 529H690Z" />
<glyph unicode="&gt;" glyph-name="greater" horiz-adv-x="494" d="M448 286L62 115L36 191L383 338L79 475L121 551L461 380L448 286Z" />
<glyph unicode="?" glyph-name="question" horiz-adv-x="453" d="M375 701T419 661T464 560Q464 511 445 478T399 426T327 383Q290 364 269 350T234 314T219 262Q219 245 222 233L140 219Q136 230 133 244T130 269Q130 314 148 344T191 392T260 434Q297 453 318
467T354 504T369 558Q369 591 347 608T284 625Q245 625 207 607T133 551L76 604Q170 701 292 701Q375 701 419 661ZM215 127T232 109T250 64Q250 32 228 10T175 -12Q148 -12 131 6T113 51Q113 83 134 105T187 127Q215 127 232 109Z" />
<glyph unicode="@" glyph-name="at" horiz-adv-x="1014" d="M691 701T777 656T908 531T952 351Q952 277 929 199T852 65T716 9Q661 9 633 39T600 110Q576 67 538 39T447 11Q377 11 338 58T299 186Q299 260 324 330T407 446T551 492Q593 492 629 483T702 451L665
168L664 139Q664 111 675 96T715 80Q767 80 800 124T847 232T862 357Q862 485 786 555T568 625Q422 625 329 557T195 387T154 183Q154 92 192 20T302 -95T473 -137Q568 -137 669 -102L688 -175Q631 -194 581 -203T469 -213Q350 -213 258 -162T114 -21T62 185Q62
303 114 422T281 621T570 701Q691 701 777 656ZM508 78T539 109T584 173L619 412Q589 426 553 426Q463 426 425 351T387 175Q387 78 459 78Q508 78 539 109Z" />
<glyph unicode="A" glyph-name="A" horiz-adv-x="567" d="M141 173L65 0H-32L284 689H403L524 0H427L400 173H141ZM332 610L174 250H388L332 610Z" />
<glyph unicode="B" glyph-name="B" horiz-adv-x="602" d="M473 353T511 320T550 220Q550 120 481 60T252 0H62L159 689H349Q447 689 506 651T565 537Q565 466 521 421T411 364Q473 353 511 320ZM212 397H313Q379 397 424 433T469 534Q469 579 437 596T352 614H242L212
397ZM365 76T408 114T452 222Q452 324 316 324H202L167 76H256Q365 76 408 114Z" />
<glyph unicode="C" glyph-name="C" horiz-adv-x="555" d="M452 701T497 683T579 630L522 574Q469 623 400 623Q315 623 262 568T184 429T160 260Q160 161 201 115T312 68Q357 68 391 83T467 128L509 63Q420 -12 306 -12Q193 -12 127 61T61 268Q61 368 96 468T207
634T394 701Q452 701 497 683Z" />
<glyph unicode="D" glyph-name="D" horiz-adv-x="639" d="M437 689T519 633T601 428Q601 311 563 214T442 59T228 0H62L159 689H300Q437 689 519 633ZM167 75H242Q336 75 395 127T479 259T505 430Q505 506 479 546T412 599T314 613H242L167 75Z" />
<glyph unicode="E" glyph-name="E" d="M242 613L210 388H440L430 312H200L167 76H450L439 0H62L159 689H528L507 613H242Z" />
<glyph unicode="F" glyph-name="F" horiz-adv-x="485" d="M242 613L209 378H432L422 303H199L156 0H62L159 689H521L500 613H242Z" />
<glyph unicode="G" glyph-name="G" horiz-adv-x="625" d="M469 701T517 681T607 622L545 569Q513 598 482 610T406 623Q322 623 267 567T185 424T159 247Q159 153 198 110T315 66Q387 66 446 101L476 305H356V382H580L535 54Q483 21 427 5T302 -12Q189 -12 125
57T60 259Q60 365 97 466T213 634T405 701Q469 701 517 681Z" />
<glyph unicode="H" glyph-name="H" horiz-adv-x="674" d="M201 323L156 0H62L159 689H253L212 401H500L541 689H635L538 0H444L489 323H201Z" />
<glyph unicode="I" glyph-name="I" horiz-adv-x="294" d="M62 0L159 689H255L158 0H62Z" />
<glyph unicode="J" glyph-name="J" horiz-adv-x="300" d="M168 -9T118 -59T-26 -138L-45 -67Q3 -49 29 -28T69 24T89 103L172 689H266L182 93Q168 -9 118 -59Z" />
<glyph unicode="K" glyph-name="K" horiz-adv-x="583" d="M62 0L159 689H253L156 0H62ZM546 0H434L213 368L515 689H626L319 365L546 0Z" />
<glyph unicode="L" glyph-name="L" horiz-adv-x="492" d="M448 83L426 0H62L159 689H253L168 83H448Z" />
<glyph unicode="M" glyph-name="M" horiz-adv-x="790" d="M582 0L602 314Q612 490 623 591L405 78H315L232 590Q220 490 179 301L115 0H25L179 689H298L376 190L580 689H713L673 0H582Z" />
<glyph unicode="N" glyph-name="N" horiz-adv-x="677" d="M418 0L221 607Q220 488 195 313L151 0H62L159 689H283L481 81Q481 149 484 200T496 316L549 689H638L541 0H418Z" />
<glyph unicode="O" glyph-name="O" horiz-adv-x="686" d="M516 701T582 628T648 421Q648 320 614 221T503 55T308 -12Q194 -12 128 60T61 265Q61 364 95 464T206 632T402 701Q516 701 582 628ZM311 623T258 566T182 424T159 255Q159 157 199 112T311 66Q399 66
452 124T528 266T550 438Q550 532 511 577T398 623Q311 623 258 566Z" />
<glyph unicode="P" glyph-name="P" horiz-adv-x="575" d="M451 689T513 644T576 507Q576 438 547 381T451 289T280 253H191L156 0H62L159 689H336Q451 689 513 644ZM389 328T432 378T476 507Q476 565 439 590T329 615H242L202 328H282Q389 328 432 378Z" />
<glyph unicode="Q" glyph-name="Q" horiz-adv-x="683" d="M648 345T628 269T564 130T452 37Q503 36 543 19T622 -26L552 -103Q518 -67 486 -48T412 -20T308 -12Q194 -12 128 60T61 265Q61 364 95 464T206 632T402 701Q516 701 582 628T648 421Q648 345 628 269ZM159
157T199 112T311 66Q399 66 452 124T528 266T550 438Q550 532 511 577T398 623Q311 623 258 566T182 424T159 255Q159 157 199 112Z" />
<glyph unicode="R" glyph-name="R" horiz-adv-x="599" d="M572 450T531 391T398 306L537 0H433L306 292H197L156 0H62L159 689H336Q572 689 572 523Q572 450 531 391ZM308 365Q397 365 435 411T473 525Q473 573 439 594T331 615H242L207 365H308Z" />
<glyph unicode="S" glyph-name="S" horiz-adv-x="539" d="M389 701T438 680T527 618L468 563Q436 595 402 609T325 623Q266 623 225 593T183 511Q183 471 210 447T312 398Q398 371 445 330T492 209Q492 160 466 109T380 23T222 -12Q80 -12 -1 80L59 136Q91 101
131 84T224 66Q294 66 344 103T394 204Q394 248 367 273T267 324Q175 352 131 394T87 507Q87 550 112 595T191 670T323 701Q389 701 438 680Z" />
<glyph unicode="T" glyph-name="T" horiz-adv-x="511" d="M351 608L266 0H171L256 608H62L74 689H562L540 608H351Z" />
<glyph unicode="U" glyph-name="U" horiz-adv-x="656" d="M546 113T475 51T292 -12Q190 -12 135 40T80 182Q80 203 83 224L149 689H243L178 225Q175 203 175 183Q175 125 205 97T296 68Q444 68 467 231L532 689H627L561 218Q546 113 475 51Z" />
<glyph unicode="V" glyph-name="V" horiz-adv-x="550" d="M188 0L65 689H163L251 103L506 689H604L289 0H188Z" />
<glyph unicode="W" glyph-name="W" horiz-adv-x="820" d="M498 0L454 577L246 0H128L86 689H176L200 83L417 689H519L568 83L768 689H855L619 0H498Z" />
<glyph unicode="X" glyph-name="X" horiz-adv-x="534" d="M492 0H389L276 305L72 0H-33L223 367L225 369L83 689H186L285 430L463 689H567L338 372L336 370L492 0Z" />
<glyph unicode="Y" glyph-name="Y" horiz-adv-x="544" d="M283 0H187L225 264L65 689H164L282 348L497 689H600L320 265L283 0Z" />
<glyph unicode="Z" glyph-name="Z" horiz-adv-x="516" d="M111 80L446 81L424 0H-8L2 76L416 609H114L125 689H532L522 612L111 80Z" />
<glyph unicode="[" glyph-name="bracketleft" horiz-adv-x="316" d="M216 739L106 -40H225L215 -116H10L141 816H346L335 739H216Z" />
<glyph unicode="\" glyph-name="backslash" horiz-adv-x="514" d="M282 -104L179 789L255 805L360 -87L282 -104Z" />
<glyph unicode="]" glyph-name="bracketright" horiz-adv-x="317" d="M-5 -116L5 -40H124L234 739H115L126 816H331L200 -116H-5Z" />
<glyph unicode="^" glyph-name="asciicircum" horiz-adv-x="534" d="M435 527L338 760L173 527H75L307 840H388L531 527H435Z" />
<glyph unicode="_" glyph-name="underscore" horiz-adv-x="514" d="M452 -63L441 -142H-41L-30 -63H452Z" />
<glyph unicode="`" glyph-name="grave" horiz-adv-x="294" d="M292 638L93 724L144 801L325 687L292 638Z" />
<glyph unicode="a" glyph-name="a" horiz-adv-x="569" d="M380 539T424 529T519 494L462 120Q460 104 460 99Q460 79 468 69T494 51L468 -12Q426 -7 403 14T375 76Q343 35 303 12T218 -12Q137 -12 94 42T50 190Q50 270 79 350T172 484T331 539Q380 539 424 529ZM270
466T229 424T168 318T148 189Q148 61 240 61Q279 61 311 86T378 158L422 449Q400 459 381 462T333 466Q270 466 229 424Z" />
<glyph unicode="b" glyph-name="b" horiz-adv-x="579" d="M252 507T289 523T368 539Q444 539 486 485T528 332Q528 250 499 172T407 41T246 -12Q202 -12 160 -4T60 23L161 739L253 750L215 475Q252 507 289 523ZM301 466T269 446T203 390L160 77Q185 68 205 65T253
61Q314 61 354 103T414 210T433 339Q433 466 339 466Q301 466 269 446Z" />
<glyph unicode="c" glyph-name="c" horiz-adv-x="472" d="M411 539T472 481L423 424Q399 445 375 454T320 463Q258 463 220 422T165 319T148 196Q148 66 255 66Q288 66 315 76T377 107L414 43Q337 -12 249 -12Q155 -12 104 44T52 203Q52 279 80 356T168 486T319
539Q411 539 472 481Z" />
<glyph unicode="d" glyph-name="d" horiz-adv-x="593" d="M462 0H382L383 87Q354 40 314 14T224 -12Q144 -12 101 44T57 197Q57 273 82 352T163 485T302 539Q385 539 437 473L476 750L566 739L462 0ZM260 466T223 422T170 315T154 190Q154 125 177 93T242 61Q288
61 323 91T396 183L427 402Q407 434 381 450T319 466Q260 466 223 422Z" />
<glyph unicode="e" glyph-name="e" horiz-adv-x="523" d="M490 303T400 259T148 196Q151 65 262 65Q299 65 333 77T403 114L442 52Q353 -12 253 -12Q157 -12 105 44T52 202Q52 281 79 358T168 487T323 539Q403 539 446 500T490 405Q490 303 400 259ZM277 280T335
309T394 402Q394 426 377 446T322 466Q246 466 205 408T153 266Q277 280 335 309Z" />
<glyph unicode="f" glyph-name="f" horiz-adv-x="329" d="M289 676T267 657T240 597L230 527H357L337 456H220L160 29Q150 -44 127 -87T66 -158T-37 -213L-63 -144Q-21 -125 3 -107T44 -57T69 29L129 456H36L46 527H139L150 602Q159 670 206 710T329 750Q365 750
393 741T453 712L418 651Q381 676 332 676Q289 676 267 657Z" />
<glyph unicode="g" glyph-name="g" horiz-adv-x="576" d="M381 539T425 529T520 494L447 12Q429 -109 367 -162T206 -216Q159 -216 111 -202T24 -165L59 -95Q88 -112 125 -124T201 -137Q264 -137 305 -106T358 13L367 80Q337 43 299 22T219 0Q138 0 93 53T48 198Q48
283 78 361T171 489T332 539Q381 539 425 529ZM271 466T229 427T166 327T146 197Q146 134 170 104T236 73Q276 73 310 99T380 172L423 449Q401 459 382 462T334 466Q271 466 229 427Z" />
<glyph unicode="h" glyph-name="h" horiz-adv-x="580" d="M443 539T476 504T510 408Q510 393 507 375L454 0H363L415 368Q418 386 418 398Q418 435 401 448T350 462Q310 462 268 421T191 316L148 0H57L161 738L253 748L207 428Q241 479 287 509T384 539Q443 539 476 504Z" />
<glyph unicode="i" glyph-name="i" horiz-adv-x="280" d="M57 0L131 527H223L149 0H57ZM235 780T251 764T267 723Q267 694 248 675T198 655Q172 655 156 671T140 712Q140 742 159 761T208 780Q235 780 251 764Z" />
<glyph unicode="j" glyph-name="j" horiz-adv-x="275" d="M138 -44T115 -87T54 -158T-49 -213L-75 -144Q-33 -125 -9 -107T32 -57T57 29L127 527H218L148 29Q138 -44 115 -87ZM231 780T247 764T263 723Q263 694 244 675T194 655Q168 655 152 671T136 712Q136 742
155 761T204 780Q231 780 247 764Z" />
<glyph unicode="k" glyph-name="k" horiz-adv-x="545" d="M246 487T292 513T389 539Q444 539 480 506T517 423Q517 357 476 308T354 233L473 0H371L245 257Q338 283 379 318T420 409Q420 436 405 451T362 466Q318 466 271 428T192 316L148 0H57L161 739L253 750L209
435Q246 487 292 513Z" />
<glyph unicode="l" glyph-name="l" horiz-adv-x="288" d="M156 90Q156 76 162 70T181 64Q198 64 217 72L236 5Q198 -12 163 -12Q117 -12 92 13T66 88Q66 96 68 118L156 739L248 750L157 103L156 90Z" />
<glyph unicode="m" glyph-name="m" horiz-adv-x="848" d="M714 539T746 504T778 408Q778 393 775 375L722 0H631L683 368Q686 386 686 399Q686 435 671 448T628 462Q590 462 553 423T479 318L434 0H343L395 368Q398 386 398 399Q398 435 383 448T340 462Q302 462
265 422T191 316L148 0H57L131 527H209L201 426Q240 481 281 510T373 539Q417 539 449 511T488 432Q528 485 570 512T661 539Q714 539 746 504Z" />
<glyph unicode="n" glyph-name="n" horiz-adv-x="580" d="M443 539T476 504T510 408Q510 393 507 375L454 0H363L415 368Q418 386 418 398Q418 435 401 448T350 462Q310 462 268 421T191 316L148 0H57L131 527H209L201 424Q239 478 286 508T384 539Q443 539 476 504Z" />
<glyph unicode="o" glyph-name="o" horiz-adv-x="578" d="M422 539T474 481T526 321Q526 248 499 172T411 42T254 -12Q157 -12 105 46T52 206Q52 280 79 356T168 486T325 539Q422 539 474 481ZM259 465T220 422T165 317T148 196Q148 62 257 62Q320 62 359 105T414
210T430 331Q430 465 322 465Q259 465 220 422Z" />
<glyph unicode="p" glyph-name="p" horiz-adv-x="588" d="M444 539T486 485T528 332Q528 251 499 172T407 41T248 -12Q199 -12 148 5L120 -204L27 -216L131 527H209L207 460Q247 504 285 521T368 539Q444 539 486 485ZM301 466T269 446T203 390L160 77Q185 68
205 65T253 61Q314 61 354 103T414 210T433 339Q433 466 339 466Q301 466 269 446Z" />
<glyph unicode="q" glyph-name="q" horiz-adv-x="575" d="M380 539T424 529T519 494L420 -205L326 -216L367 65Q340 31 301 10T218 -12Q137 -12 94 42T50 190Q50 270 79 350T172 484T331 539Q380 539 424 529ZM270 466T229 424T168 318T148 189Q148 61 240 61Q279
61 311 86T378 158L422 449Q400 459 381 462T333 466Q270 466 229 424Z" />
<glyph unicode="r" glyph-name="r" horiz-adv-x="381" d="M381 539T409 532L382 443Q363 448 339 448Q290 448 254 406T188 279L148 0H57L131 527H209L203 419Q232 479 271 509T356 539Q381 539 409 532Z" />
<glyph unicode="s" glyph-name="s" horiz-adv-x="461" d="M363 539T436 474L391 416Q365 441 332 453T266 466Q215 466 186 447T157 395Q157 365 181 349T263 315Q340 292 376 255T412 155Q412 100 381 63T301 7T193 -12Q76 -12 -2 64L54 121Q80 93 117 78T197
62Q260 62 288 89T316 148Q316 174 306 190T273 218T205 245Q130 270 97 303T64 390Q64 427 86 461T154 517T266 539Q363 539 436 474Z" />
<glyph unicode="t" glyph-name="t" horiz-adv-x="355" d="M171 119T171 112Q171 87 182 76T220 65Q252 65 294 89L324 23Q269 -12 205 -12Q145 -12 113 19T80 108Q80 119 82 141L126 456H35L45 527H140L173 649L245 657L227 527H351L331 456H217L173 139Q171 119
171 112Z" />
<glyph unicode="u" glyph-name="u" horiz-adv-x="576" d="M367 0L374 97Q335 43 294 16T200 -12Q138 -12 105 22T71 118Q71 128 73 152L126 527H217L165 156Q163 143 163 122Q163 88 177 74T220 60Q265 60 303 94T380 184L428 527H519L445 0H367Z" />
<glyph unicode="v" glyph-name="v" horiz-adv-x="486" d="M153 0L47 527H146L218 83L414 527H514L262 0H153Z" />
<glyph unicode="w" glyph-name="w" horiz-adv-x="711" d="M412 0L384 444L227 0H106L58 527H148L177 64L344 527H447L480 64L640 527H728L537 0H412Z" />
<glyph unicode="x" glyph-name="x" horiz-adv-x="479" d="M437 0H334L234 222L71 0H-33L188 283L63 527H165L249 334L387 527H492L296 275L437 0Z" />
<glyph unicode="y" glyph-name="y" horiz-adv-x="486" d="M229 -96T164 -149T-5 -213L-9 -141Q44 -132 77 -115T133 -70T178 2L148 0L47 527H143L217 70L419 527H514L270 -5Q229 -96 164 -149Z" />
<glyph unicode="z" glyph-name="z" horiz-adv-x="431" d="M109 77H376L355 0H-13L-4 69L313 449H73L84 527H436L427 457L109 77Z" />
<glyph unicode="{" glyph-name="braceleft" horiz-adv-x="316" d="M295 765T270 749T240 694L206 455Q199 404 179 383T116 347Q148 336 163 319T178 267Q178 250 176 239L142 0Q141 -6 141 -16Q141 -43 160 -54T225 -65L219 -136Q138 -136 97 -107T56 -15Q56
-6 58 16L89 238Q91 248 91 264Q91 290 77 300T27 311L38 387Q77 387 96 406T122 468L153 690Q161 744 182 775T243 821T351 836L345 765Q295 765 270 749Z" />
<glyph unicode="|" glyph-name="bar" horiz-adv-x="397" d="M106 -102L233 807H316L189 -102H106Z" />
<glyph unicode="}" glyph-name="braceright" horiz-adv-x="316" d="M45 -65T70 -49T100 6L134 245Q141 296 161 317T224 353Q193 364 178 381T162 433Q162 441 164 461L198 700Q199 706 199 716Q199 743 180 754T115 765L121 836Q203 836 244 807T285 715Q285
701 282 684L251 462Q249 442 249 436Q249 410 263 400T313 389L302 313Q263 313 244 294T218 232L187 10Q179 -44 158 -75T97 -121T-11 -136L-5 -65Q45 -65 70 -49Z" />
<glyph unicode="~" glyph-name="asciitilde" horiz-adv-x="482" d="M213 384T233 374T279 346Q295 334 304 329T325 323Q349 323 367 337T402 375L460 339Q401 250 317 250Q286 250 265 260T217 290Q202 302 194 307T175 312Q150 312 132 297T95 254L37 289Q97
384 183 384Q213 384 233 374Z" />
<glyph unicode="&#xa0;" glyph-name="nbspace" horiz-adv-x="259" />
<glyph unicode="&#xa1;" glyph-name="exclamdown" horiz-adv-x="235" d="M177 495T194 477T212 432Q212 400 190 378T137 356Q110 356 93 374T75 419Q75 451 96 473T149 495Q177 495 194 477ZM6 -202L79 247H160L107 -202H6Z" />
<glyph unicode="&#xa2;" glyph-name="cent" horiz-adv-x="472" d="M258 463T220 422T165 319T148 196Q148 66 255 66Q288 66 315 76T377 107L414 43Q346 -5 272 -11L252 -154H173L194 -6Q126 10 89 64T52 203Q52 272 75 343T147 467T271 535L292 684H370L349 537Q422
529 472 481L423 424Q399 445 375 454T320 463Q258 463 220 422Z" />
<glyph unicode="&#xa3;" glyph-name="sterling" horiz-adv-x="519" d="M417 679T458 658T530 594L467 552Q448 580 424 592T364 604Q314 604 282 575T243 491L228 382H433L424 322H219L202 201Q195 150 179 123T126 76L441 77L419 0H2L10 74Q47 87 66 102T96 141T112
208L128 322H63L72 382H137L153 496Q165 578 220 628T361 679Q417 679 458 658Z" />
<glyph unicode="&#xa4;" glyph-name="currency" horiz-adv-x="560" d="M492 272T455 218L531 143L476 88L398 164Q345 132 278 132Q214 132 161 166L84 88L29 143L107 221Q71 274 71 341Q71 406 106 460L29 540L84 595L162 515Q211 549 278 549Q345 549 398 517L476
595L531 540L455 463Q492 411 492 341Q492 272 455 218ZM340 205T371 241T403 342Q403 407 372 443T281 479Q222 479 190 443T158 342Q158 277 190 241T281 205Q340 205 371 241Z" />
<glyph unicode="&#xa5;" glyph-name="yen" horiz-adv-x="530" d="M460 346L451 284H315L302 194H438L430 133H294L275 0H181L200 133H63L71 194H209L222 284H84L93 346H206L62 669H162L282 374L486 669H583L348 346H460Z" />
<glyph unicode="&#xa6;" glyph-name="brokenbar" horiz-adv-x="397" d="M182 443L233 807H316L265 443H182ZM106 -102L157 262H240L189 -102H106Z" />
<glyph unicode="&#xa7;" glyph-name="section" horiz-adv-x="527" d="M463 393T463 299Q463 260 440 229T367 169Q410 132 410 75Q410 37 389 4T321 -50T204 -71Q156 -71 114 -57T38 -20L78 40Q134 1 209 1Q268 1 293 21T319 75Q319 96 310 109T279 134T212 162Q142
185 108 219T74 306Q74 385 170 439Q130 474 130 525Q130 599 188 638T332 677Q424 677 497 621L457 566Q425 587 395 596T329 606Q271 606 246 585T220 531Q220 502 241 484T325 443Q463 393 463 299ZM375 247T375 291Q375 317 355 337T284 378Q254 388 223 404Q164
360 164 312Q164 283 181 265T242 230Q286 215 314 202Q375 247 375 291Z" />
<glyph unicode="&#xa8;" glyph-name="dieresis" horiz-adv-x="379" d="M176 768T190 753T205 716Q205 690 188 672T145 654Q122 654 108 669T93 707Q93 733 110 750T153 768Q176 768 190 753ZM384 768T398 753T413 716Q413 690 396 672T352 654Q329 654 315 669T301
707Q301 733 318 750T360 768Q384 768 398 753Z" />
<glyph unicode="&#xa9;" glyph-name="copyright" horiz-adv-x="810" d="M491 748T562 706T676 592T718 434Q718 349 676 277T563 163T406 121Q320 121 248 163T134 277T92 434Q92 520 134 592T248 706T406 748Q491 748 562 706ZM335 696T277 661T186 566T153 434Q153
363 186 304T277 209T406 174Q477 174 534 209T625 303T658 434Q658 506 625 566T535 661T406 696Q335 696 277 661ZM444 625T471 615T525 585L488 536Q455 565 412 565Q371 565 346 533T321 435Q321 372 345 340T412 308Q437 308 456 315T496 339L528 291Q476
245 409 245Q335 245 290 295T245 435Q245 495 267 538T326 603T408 625Q444 625 471 615Z" />
<glyph unicode="&#xaa;" glyph-name="ordfeminine" horiz-adv-x="494" d="M370 689T405 661T440 578Q440 569 438 551L415 381Q414 375 414 365Q414 353 419 345T439 332L414 272Q349 278 335 330Q286 271 204 271Q146 271 114 303T82 385Q82 444 129 484T287
525H346L349 545Q351 558 351 569Q351 597 335 608T281 620Q234 620 165 598L148 662Q226 689 298 689Q370 689 405 661ZM229 470T202 446T174 389Q174 365 187 351T227 337Q287 337 328 394L339 470H293Q229 470 202 446ZM411 77L400 0H28L39 77H411Z" />
<glyph unicode="&#xab;" glyph-name="guillemotleft" horiz-adv-x="569" d="M150 287L255 77L198 39L53 255L60 318L259 535L314 497L150 287ZM385 287L490 77L433 39L288 255L295 318L494 535L549 497L385 287Z" />
<glyph unicode="&#xac;" glyph-name="logicalnot" horiz-adv-x="494" d="M334 141L354 284H64L75 361H447L416 141H334Z" />
<glyph unicode="&#xad;" glyph-name="softhyphen" horiz-adv-x="397" d="M351 352L340 274H59L70 352H351Z" />
<glyph unicode="&#xae;" glyph-name="registered" horiz-adv-x="641" d="M390 750T448 716T540 622T574 493Q574 423 541 365T449 272T319 238Q250 238 192 272T101 364T67 493Q67 563 100 622T192 715T319 750Q390 750 448 716ZM377 287T422 314T493 389T519
493Q519 550 494 597T423 673T319 701Q263 701 218 673T148 598T122 493Q122 436 147 389T218 315T319 287Q377 287 422 314ZM428 522T410 503T363 474L437 359H370L309 465H285V359H228V635H306Q428 635 428 551Q428 522 410 503ZM315 509Q369 509 369 551Q369
572 356 581T313 591H285V509H315Z" />
<glyph unicode="&#xaf;" glyph-name="overscore" horiz-adv-x="327" d="M94 736H365L356 667H85L94 736Z" />
<glyph unicode="&#xb0;" glyph-name="degree" horiz-adv-x="517" d="M177 381T135 418T92 520Q92 576 118 617T186 679T273 701Q334 701 376 664T418 562Q418 506 392 465T325 403T237 381Q177 381 135 418ZM275 443T305 469T342 545Q344 559 344 565Q344 601
324 619T273 638Q236 638 206 612T168 536Q167 529 167 517Q167 481 187 462T237 443Q275 443 305 469Z" />
<glyph unicode="&#xb1;" glyph-name="plusminus" horiz-adv-x="494" d="M407 77L396 0H24L35 77H407ZM451 392L440 316H296L275 167H191L212 316H69L80 392H223L244 542H328L307 392H451Z" />
<glyph unicode="&#xb2;" glyph-name="twosuperior" horiz-adv-x="394" d="M278 746T311 717T345 640Q345 635 343 621Q338 588 319 557T257 486T135 382L320 384L303 322H36L43 382Q137 463 179 502T240 568T264 625Q265 629 265 636Q265 660 251 672T212 684Q186
684 165 673T119 637L73 680Q136 746 219 746Q278 746 311 717Z" />
<glyph unicode="&#xb3;" glyph-name="threesuperior" horiz-adv-x="394" d="M281 746T313 719T346 650Q346 608 320 581T246 542Q283 540 307 517T332 454Q332 415 312 383T253 332T165 313Q121 313 86 329T29 375L80 414Q112 374 161 374Q203 374 228 399T254
465Q254 491 237 501T184 512H148L165 568H186Q218 568 241 586T268 636Q269 639 269 645Q269 666 255 676T214 687Q188 687 166 678T120 648L84 695Q145 746 221 746Q281 746 313 719Z" />
<glyph unicode="&#xb4;" glyph-name="acute" horiz-adv-x="294" d="M110 638L89 687L300 801L330 724L110 638Z" />
<glyph unicode="&#xb5;" glyph-name="uni00B5" horiz-adv-x="581" d="M463 127T463 81Q463 38 470 -2L386 -10Q378 15 376 35T375 85Q345 43 306 16T221 -12Q195 -12 173 -4T138 22Q142 10 142 -11Q142 -40 133 -99L119 -202L27 -213L131 527H222L169 153Q168
145 168 132Q168 67 233 67Q273 67 309 89T378 163L428 527H519L470 177Q463 127 463 81Z" />
<glyph unicode="&#xb6;" glyph-name="paragraph" horiz-adv-x="728" d="M524 -202L439 -215L555 615H442L329 -202L244 -215L314 283Q216 288 168 334T119 454Q119 478 121 490Q134 585 205 636T391 688V686L392 688L649 689L524 -202Z" />
<glyph unicode="&#xb7;" glyph-name="middot" horiz-adv-x="240" d="M161 380T178 362T196 317Q196 285 174 263T121 241Q94 241 77 259T59 304Q59 336 80 358T133 380Q161 380 178 362Z" />
<glyph unicode="&#xb8;" glyph-name="cedilla" horiz-adv-x="269" d="M144 -60T164 -81T184 -132Q184 -176 150 -208T51 -241Q23 -241 0 -234T-38 -214L-7 -165Q17 -181 49 -181Q74 -181 91 -169T109 -136Q109 -115 92 -107T27 -99L55 16H114L102 -56Q144 -60 164 -81Z" />
<glyph unicode="&#xb9;" glyph-name="onesuperior" horiz-adv-x="394" d="M165 322L212 660L108 603L81 656L231 739H300L241 322H165Z" />
<glyph unicode="&#xba;" glyph-name="ordmasculine" horiz-adv-x="494" d="M383 689T427 644T472 519Q472 460 451 404T381 309T255 271Q173 271 128 316T83 441Q83 499 104 556T175 651T302 689Q383 689 427 644ZM234 620T205 564T176 433Q176 340 254 340Q321
340 350 399T379 528Q379 575 360 597T302 620Q234 620 205 564ZM408 77L397 0H25L36 77H408Z" />
<glyph unicode="&#xbb;" glyph-name="guillemotright" horiz-adv-x="560" d="M280 255L79 39L26 77L189 287L85 497L141 535L287 318L280 255ZM506 255L305 39L252 77L415 287L311 497L367 535L513 318L506 255Z" />
<glyph unicode="&#xbc;" glyph-name="onequarter" horiz-adv-x="914" d="M158 272L205 610L101 553L74 606L224 689H293L234 272H158ZM239 -78L182 -49L696 750L752 721L239 -78ZM797 96L783 0H708L721 96H537L544 150L709 424L772 399L626 156H730L752 261H820L805
156H857L848 96H797Z" />
<glyph unicode="&#xbd;" glyph-name="onehalf" horiz-adv-x="914" d="M158 272L205 610L101 553L74 606L224 689H293L234 272H158ZM239 -78L182 -49L696 750L752 721L239 -78ZM790 424T823 395T857 318Q857 313 855 299Q850 266 831 235T769 164T647 60L832 62L815
0H548L555 60Q649 141 691 180T752 246T776 303Q777 307 777 314Q777 338 763 350T724 362Q698 362 677 351T631 315L585 358Q648 424 731 424Q790 424 823 395Z" />
<glyph unicode="&#xbe;" glyph-name="threequarters" horiz-adv-x="914" d="M274 696T306 669T339 600Q339 558 313 531T239 492Q276 490 300 467T325 404Q325 365 305 333T246 282T158 263Q114 263 79 279T22 325L73 364Q105 324 154 324Q196 324 221 349T247
415Q247 441 230 451T177 462H141L158 518H179Q211 518 234 536T261 586Q262 589 262 595Q262 616 248 626T207 637Q181 637 159 628T113 598L77 645Q138 696 214 696Q274 696 306 669ZM239 -78L182 -49L696 750L752 721L239 -78ZM797 96L783 0H708L721 96H537L544
150L709 424L772 399L626 156H730L752 261H820L805 156H857L848 96H797Z" />
<glyph unicode="&#xbf;" glyph-name="questiondown" horiz-adv-x="453" d="M232 368T215 386T197 431Q197 463 219 485T272 507Q299 507 316 489T334 444Q334 412 313 390T260 368Q232 368 215 386ZM72 -216T28 -176T-17 -75Q-17 -25 2 8T49 60T121 103Q175 130
201 154T228 223Q228 240 225 252L307 266Q311 255 314 241T317 216Q317 172 299 142T255 93T187 52Q150 32 129 18T93 -19T78 -73Q78 -106 100 -123T163 -140Q202 -140 240 -122T314 -66L371 -119Q277 -216 155 -216Q72 -216 28 -176Z" />
<glyph unicode="&#xc0;" glyph-name="Agrave" horiz-adv-x="567" d="M141 173L65 0H-32L284 689H403L524 0H427L400 173H141ZM332 610L174 250H388L332 610ZM451 755L247 834L296 911L481 804L451 755Z" />
<glyph unicode="&#xc1;" glyph-name="Aacute" horiz-adv-x="567" d="M141 173L65 0H-32L284 689H403L524 0H427L400 173H141ZM332 610L174 250H388L332 610ZM261 755L244 804L455 911L484 834L261 755Z" />
<glyph unicode="&#xc2;" glyph-name="Acircumflex" horiz-adv-x="567" d="M141 173L65 0H-32L284 689H403L524 0H427L400 173H141ZM332 610L174 250H388L332 610ZM238 759L201 804L350 914H410L529 804L488 759L373 840L238 759Z" />
<glyph unicode="&#xc3;" glyph-name="Atilde" horiz-adv-x="567" d="M141 173L65 0H-32L284 689H403L524 0H427L400 173H141ZM332 610L174 250H388L332 610ZM399 782T383 790T349 812Q326 830 311 830Q293 830 279 818T248 782L196 814Q249 900 313 900Q335 900
350 893T383 871Q406 852 420 852Q436 852 450 863T481 898L535 866Q510 824 481 803T422 782Q399 782 383 790Z" />
<glyph unicode="&#xc4;" glyph-name="Adieresis" horiz-adv-x="567" d="M141 173L65 0H-32L284 689H403L524 0H427L400 173H141ZM332 610L174 250H388L332 610ZM288 894T302 879T317 842Q317 816 300 798T257 780Q234 780 220 795T205 833Q205 859 222 876T265
894Q288 894 302 879ZM496 894T510 879T525 842Q525 816 508 798T464 780Q441 780 427 795T413 833Q413 859 430 876T472 894Q496 894 510 879Z" />
<glyph unicode="&#xc5;" glyph-name="Aring" horiz-adv-x="567" d="M141 173L65 0H-32L284 689H403L524 0H427L400 173H141ZM332 610L174 250H388L332 610ZM424 962T452 935T481 866Q481 818 445 784T357 750Q311 750 283 777T254 847Q254 895 290 928T378 962Q424
962 452 935ZM323 912T315 851Q312 828 324 814T359 800Q384 800 399 816T420 861Q421 865 421 871Q421 890 409 901T376 912Q323 912 315 851Z" />
<glyph unicode="&#xc6;" glyph-name="AE" horiz-adv-x="808" d="M470 387H723L713 311H479L504 76H729L718 0H421L405 173H139L51 0H-49L317 689H775L753 613H446L470 387ZM364 613L179 250H398L364 613Z" />
<glyph unicode="&#xc7;" glyph-name="Ccedilla" horiz-adv-x="556" d="M315 623T262 568T184 429T160 260Q160 161 201 115T312 68Q357 68 391 83T467 128L509 63Q420 -12 306 -12H294L287 -56Q329 -60 349 -81T369 -132Q369 -176 335 -208T236 -241Q208 -241
185 -234T147 -214L178 -165Q202 -181 234 -181Q259 -181 276 -169T294 -136Q294 -115 277 -107T212 -99L235 -4Q153 17 107 87T61 268Q61 368 96 468T207 634T394 701Q452 701 497 683T579 630L522 574Q469 623 400 623Q315 623 262 568Z" />
<glyph unicode="&#xc8;" glyph-name="Egrave" d="M242 613L210 388H440L430 312H200L167 76H450L439 0H62L159 689H528L507 613H242ZM454 755L250 834L299 911L484 804L454 755Z" />
<glyph unicode="&#xc9;" glyph-name="Eacute" d="M242 613L210 388H440L430 312H200L167 76H450L439 0H62L159 689H528L507 613H242ZM264 755L247 804L458 911L487 834L264 755Z" />
<glyph unicode="&#xca;" glyph-name="Ecircumflex" d="M242 613L210 388H440L430 312H200L167 76H450L439 0H62L159 689H528L507 613H242ZM241 759L204 804L353 914H413L532 804L491 759L376 840L241 759Z" />
<glyph unicode="&#xcb;" glyph-name="Edieresis" d="M242 613L210 388H440L430 312H200L167 76H450L439 0H62L159 689H528L507 613H242ZM291 894T305 879T320 842Q320 816 303 798T260 780Q237 780 223 795T208 833Q208 859 225 876T268 894Q291 894 305 879ZM499
894T513 879T528 842Q528 816 511 798T467 780Q444 780 430 795T416 833Q416 859 433 876T475 894Q499 894 513 879Z" />
<glyph unicode="&#xcc;" glyph-name="Igrave" horiz-adv-x="294" d="M62 0L159 689H255L158 0H62ZM314 755L110 834L159 911L344 804L314 755Z" />
<glyph unicode="&#xcd;" glyph-name="Iacute" horiz-adv-x="294" d="M62 0L159 689H255L158 0H62ZM124 755L107 804L318 911L347 834L124 755Z" />
<glyph unicode="&#xce;" glyph-name="Icircumflex" horiz-adv-x="294" d="M62 0L159 689H255L158 0H62ZM357 759L320 804L469 914H529L648 804L607 759L492 840L357 759Z" />
<glyph unicode="&#xcf;" glyph-name="Idieresis" horiz-adv-x="294" d="M62 0L159 689H255L158 0H62ZM407 894T421 879T436 842Q436 816 419 798T376 780Q353 780 339 795T324 833Q324 859 341 876T384 894Q407 894 421 879ZM615 894T629 879T644 842Q644 816
627 798T583 780Q560 780 546 795T532 833Q532 859 549 876T591 894Q615 894 629 879Z" />
<glyph unicode="&#xd0;" glyph-name="Eth" horiz-adv-x="648" d="M447 689T529 633T611 428Q611 311 573 214T452 59T238 0H72L117 318H29L38 388H127L169 689H310Q447 689 529 633ZM346 75T405 127T489 259T515 430Q515 506 489 546T422 599T324 613H252L221
388H378L369 318H211L177 75H252Q346 75 405 127Z" />
<glyph unicode="&#xd1;" glyph-name="Ntilde" horiz-adv-x="677" d="M418 0L221 607Q220 488 195 313L151 0H62L159 689H283L481 81Q481 149 484 200T496 316L549 689H638L541 0H418ZM465 782T449 790T415 812Q392 830 377 830Q359 830 345 818T314 782L262 814Q315
900 379 900Q401 900 416 893T449 871Q472 852 486 852Q502 852 516 863T547 898L601 866Q576 824 547 803T488 782Q465 782 449 790Z" />
<glyph unicode="&#xd2;" glyph-name="Ograve" horiz-adv-x="686" d="M516 701T582 628T648 421Q648 320 614 221T503 55T308 -12Q194 -12 128 60T61 265Q61 364 95 464T206 632T402 701Q516 701 582 628ZM311 623T258 566T182 424T159 255Q159 157 199 112T311
66Q399 66 452 124T528 266T550 438Q550 532 511 577T398 623Q311 623 258 566ZM514 755L310 834L359 911L544 804L514 755Z" />
<glyph unicode="&#xd3;" glyph-name="Oacute" horiz-adv-x="686" d="M516 701T582 628T648 421Q648 320 614 221T503 55T308 -12Q194 -12 128 60T61 265Q61 364 95 464T206 632T402 701Q516 701 582 628ZM311 623T258 566T182 424T159 255Q159 157 199 112T311
66Q399 66 452 124T528 266T550 438Q550 532 511 577T398 623Q311 623 258 566ZM324 755L307 804L518 911L547 834L324 755Z" />
<glyph unicode="&#xd4;" glyph-name="Ocircumflex" horiz-adv-x="686" d="M516 701T582 628T648 421Q648 320 614 221T503 55T308 -12Q194 -12 128 60T61 265Q61 364 95 464T206 632T402 701Q516 701 582 628ZM311 623T258 566T182 424T159 255Q159 157 199 112T311
66Q399 66 452 124T528 266T550 438Q550 532 511 577T398 623Q311 623 258 566ZM301 759L264 804L413 914H473L592 804L551 759L436 840L301 759Z" />
<glyph unicode="&#xd5;" glyph-name="Otilde" horiz-adv-x="686" d="M516 701T582 628T648 421Q648 320 614 221T503 55T308 -12Q194 -12 128 60T61 265Q61 364 95 464T206 632T402 701Q516 701 582 628ZM311 623T258 566T182 424T159 255Q159 157 199 112T311
66Q399 66 452 124T528 266T550 438Q550 532 511 577T398 623Q311 623 258 566ZM462 782T446 790T412 812Q389 830 374 830Q356 830 342 818T311 782L259 814Q312 900 376 900Q398 900 413 893T446 871Q469 852 483 852Q499 852 513 863T544 898L598 866Q573 824
544 803T485 782Q462 782 446 790Z" />
<glyph unicode="&#xd6;" glyph-name="Odieresis" horiz-adv-x="686" d="M516 701T582 628T648 421Q648 320 614 221T503 55T308 -12Q194 -12 128 60T61 265Q61 364 95 464T206 632T402 701Q516 701 582 628ZM311 623T258 566T182 424T159 255Q159 157 199 112T311
66Q399 66 452 124T528 266T550 438Q550 532 511 577T398 623Q311 623 258 566ZM351 894T365 879T380 842Q380 816 363 798T320 780Q297 780 283 795T268 833Q268 859 285 876T328 894Q351 894 365 879ZM559 894T573 879T588 842Q588 816 571 798T527 780Q504 780
490 795T476 833Q476 859 493 876T535 894Q559 894 573 879Z" />
<glyph unicode="&#xd7;" glyph-name="multiply" horiz-adv-x="494" d="M308 307L412 185L350 129L246 251L109 129L60 185L198 307L94 429L156 486L260 363L397 486L446 429L308 307Z" />
<glyph unicode="&#xd8;" glyph-name="Oslash" horiz-adv-x="686" d="M592 631T620 570T648 421Q648 320 614 221T503 55T308 -12Q270 -12 241 -5L188 -127L111 -106L169 25Q117 58 89 119T61 265Q61 364 95 464T206 632T402 701Q439 701 467 694L522 819L599 798L539
665Q592 631 620 570ZM311 623T258 566T182 424T159 255Q159 140 211 96L442 619Q423 623 398 623Q311 623 258 566ZM399 66T452 124T528 266T550 438Q550 553 496 595L266 70Q285 66 311 66Q399 66 452 124Z" />
<glyph unicode="&#xd9;" glyph-name="Ugrave" horiz-adv-x="656" d="M546 113T475 51T292 -12Q190 -12 135 40T80 182Q80 203 83 224L149 689H243L178 225Q175 203 175 183Q175 125 205 97T296 68Q444 68 467 231L532 689H627L561 218Q546 113 475 51ZM495 755L291
834L340 911L525 804L495 755Z" />
<glyph unicode="&#xda;" glyph-name="Uacute" horiz-adv-x="656" d="M546 113T475 51T292 -12Q190 -12 135 40T80 182Q80 203 83 224L149 689H243L178 225Q175 203 175 183Q175 125 205 97T296 68Q444 68 467 231L532 689H627L561 218Q546 113 475 51ZM305 755L288
804L499 911L528 834L305 755Z" />
<glyph unicode="&#xdb;" glyph-name="Ucircumflex" horiz-adv-x="656" d="M546 113T475 51T292 -12Q190 -12 135 40T80 182Q80 203 83 224L149 689H243L178 225Q175 203 175 183Q175 125 205 97T296 68Q444 68 467 231L532 689H627L561 218Q546 113 475 51ZM282
759L245 804L394 914H454L573 804L532 759L417 840L282 759Z" />
<glyph unicode="&#xdc;" glyph-name="Udieresis" horiz-adv-x="656" d="M546 113T475 51T292 -12Q190 -12 135 40T80 182Q80 203 83 224L149 689H243L178 225Q175 203 175 183Q175 125 205 97T296 68Q444 68 467 231L532 689H627L561 218Q546 113 475 51ZM332
894T346 879T361 842Q361 816 344 798T301 780Q278 780 264 795T249 833Q249 859 266 876T309 894Q332 894 346 879ZM540 894T554 879T569 842Q569 816 552 798T508 780Q485 780 471 795T457 833Q457 859 474 876T516 894Q540 894 554 879Z" />
<glyph unicode="&#xdd;" glyph-name="Yacute" horiz-adv-x="544" d="M283 0H187L225 264L65 689H164L282 348L497 689H600L320 265L283 0ZM252 755L235 804L446 911L475 834L252 755Z" />
<glyph unicode="&#xde;" glyph-name="Thorn" horiz-adv-x="575" d="M434 571T496 525T559 385Q559 319 531 261T436 165T262 127H174L156 0H62L159 689H253L236 571H319Q434 571 496 525ZM369 202T414 254T459 385Q459 446 422 471T313 497H226L184 202H264Q369
202 414 254Z" />
<glyph unicode="&#xdf;" glyph-name="germandbls" horiz-adv-x="587" d="M384 401T397 385T441 344Q471 319 489 300T521 249T535 175Q535 130 512 87T444 16T335 -12Q299 -12 268 -3T214 19L247 81Q263 73 285 68T328 62Q387 62 415 96T443 172Q443 213 424 240T367
299Q332 328 315 351T297 409Q297 449 315 472T369 524Q401 547 417 567T433 619Q433 648 412 663T354 678Q301 678 267 642T223 536L152 29Q142 -44 119 -87T58 -158T-45 -213L-71 -144Q-29 -125 -5 -107T36 -57T61 29L133 542Q146 642 204 696T357 750Q433 750
476 714T520 621Q520 575 499 548T438 492Q410 471 397 457T384 422Q384 401 397 385Z" />
<glyph unicode="&#xe0;" glyph-name="agrave" horiz-adv-x="569" d="M380 539T424 529T519 494L462 120Q460 104 460 99Q460 79 468 69T494 51L468 -12Q426 -7 403 14T375 76Q343 35 303 12T218 -12Q137 -12 94 42T50 190Q50 270 79 350T172 484T331 539Q380 539
424 529ZM270 466T229 424T168 318T148 189Q148 61 240 61Q279 61 311 86T378 158L422 449Q400 459 381 462T333 466Q270 466 229 424ZM451 638L252 724L303 801L484 687L451 638Z" />
<glyph unicode="&#xe1;" glyph-name="aacute" horiz-adv-x="569" d="M380 539T424 529T519 494L462 120Q460 104 460 99Q460 79 468 69T494 51L468 -12Q426 -7 403 14T375 76Q343 35 303 12T218 -12Q137 -12 94 42T50 190Q50 270 79 350T172 484T331 539Q380 539
424 529ZM270 466T229 424T168 318T148 189Q148 61 240 61Q279 61 311 86T378 158L422 449Q400 459 381 462T333 466Q270 466 229 424ZM249 638L228 687L439 801L469 724L249 638Z" />
<glyph unicode="&#xe2;" glyph-name="acircumflex" horiz-adv-x="569" d="M380 539T424 529T519 494L462 120Q460 104 460 99Q460 79 468 69T494 51L468 -12Q426 -7 403 14T375 76Q343 35 303 12T218 -12Q137 -12 94 42T50 190Q50 270 79 350T172 484T331 539Q380
539 424 529ZM270 466T229 424T168 318T148 189Q148 61 240 61Q279 61 311 86T378 158L422 449Q400 459 381 462T333 466Q270 466 229 424ZM339 792H399L518 679L474 634L361 718L227 634L190 679L339 792Z" />
<glyph unicode="&#xe3;" glyph-name="atilde" horiz-adv-x="569" d="M380 539T424 529T519 494L462 120Q460 104 460 99Q460 79 468 69T494 51L468 -12Q426 -7 403 14T375 76Q343 35 303 12T218 -12Q137 -12 94 42T50 190Q50 270 79 350T172 484T331 539Q380 539
424 529ZM270 466T229 424T168 318T148 189Q148 61 240 61Q279 61 311 86T378 158L422 449Q400 459 381 462T333 466Q270 466 229 424ZM393 656T377 664T343 686Q320 704 305 704Q287 704 273 692T242 656L190 688Q243 774 307 774Q329 774 344 767T377 745Q400
726 414 726Q430 726 444 737T475 772L529 740Q504 698 475 677T416 656Q393 656 377 664Z" />
<glyph unicode="&#xe4;" glyph-name="adieresis" horiz-adv-x="569" d="M380 539T424 529T519 494L462 120Q460 104 460 99Q460 79 468 69T494 51L468 -12Q426 -7 403 14T375 76Q343 35 303 12T218 -12Q137 -12 94 42T50 190Q50 270 79 350T172 484T331 539Q380
539 424 529ZM270 466T229 424T168 318T148 189Q148 61 240 61Q279 61 311 86T378 158L422 449Q400 459 381 462T333 466Q270 466 229 424ZM277 768T291 753T306 716Q306 690 289 672T246 654Q223 654 209 669T194 707Q194 733 211 750T254 768Q277 768 291 753ZM485
768T499 753T514 716Q514 690 497 672T453 654Q430 654 416 669T402 707Q402 733 419 750T461 768Q485 768 499 753Z" />
<glyph unicode="&#xe5;" glyph-name="aring" horiz-adv-x="569" d="M380 539T424 529T519 494L462 120Q460 104 460 99Q460 79 468 69T494 51L468 -12Q426 -7 403 14T375 76Q343 35 303 12T218 -12Q137 -12 94 42T50 190Q50 270 79 350T172 484T331 539Q380 539
424 529ZM270 466T229 424T168 318T148 189Q148 61 240 61Q279 61 311 86T378 158L422 449Q400 459 381 462T333 466Q270 466 229 424ZM418 836T446 809T475 740Q475 692 439 658T351 624Q305 624 277 651T248 721Q248 769 284 802T372 836Q418 836 446 809ZM317
786T309 725Q306 702 318 688T353 674Q378 674 393 690T414 735Q415 739 415 745Q415 764 403 775T370 786Q317 786 309 725Z" />
<glyph unicode="&#xe6;" glyph-name="ae" horiz-adv-x="856" d="M418 539T453 456Q483 493 529 516T633 539Q713 539 756 500T800 405Q800 334 755 292T635 231T453 200Q454 129 485 97T572 65Q609 65 643 77T713 114L752 52Q663 -12 563 -12Q501 -12 457 12T389
81Q347 31 299 10T190 -12Q118 -12 78 26T38 127Q38 205 99 256T294 308H375Q383 349 395 384Q393 419 360 441T281 464Q226 464 142 437L124 509Q209 539 304 539Q418 539 453 456ZM557 466T515 409T459 270Q544 279 595 292T675 332T704 402Q704 426 687 446T632
466Q557 466 515 409ZM220 245T179 217T138 126Q138 57 213 57Q256 57 293 80T367 151Q365 169 365 205Q365 239 366 245H302Q220 245 179 217Z" />
<glyph unicode="&#xe7;" glyph-name="ccedilla" horiz-adv-x="473" d="M258 463T220 422T165 319T148 196Q148 66 255 66Q288 66 315 76T377 107L414 43Q344 -6 265 -12L258 -56Q300 -60 320 -81T340 -132Q340 -176 306 -208T207 -241Q179 -241 156 -234T118 -214L149
-165Q173 -181 205 -181Q230 -181 247 -169T265 -136Q265 -115 248 -107T183 -99L205 -8Q132 5 92 59T52 203Q52 279 80 356T168 486T319 539Q411 539 472 481L423 424Q399 445 375 454T320 463Q258 463 220 422Z" />
<glyph unicode="&#xe8;" glyph-name="egrave" horiz-adv-x="523" d="M490 303T400 259T148 196Q151 65 262 65Q299 65 333 77T403 114L442 52Q353 -12 253 -12Q157 -12 105 44T52 202Q52 281 79 358T168 487T323 539Q403 539 446 500T490 405Q490 303 400 259ZM277
280T335 309T394 402Q394 426 377 446T322 466Q246 466 205 408T153 266Q277 280 335 309ZM432 638L233 724L284 801L465 687L432 638Z" />
<glyph unicode="&#xe9;" glyph-name="eacute" horiz-adv-x="523" d="M490 303T400 259T148 196Q151 65 262 65Q299 65 333 77T403 114L442 52Q353 -12 253 -12Q157 -12 105 44T52 202Q52 281 79 358T168 487T323 539Q403 539 446 500T490 405Q490 303 400 259ZM277
280T335 309T394 402Q394 426 377 446T322 466Q246 466 205 408T153 266Q277 280 335 309ZM230 638L209 687L420 801L450 724L230 638Z" />
<glyph unicode="&#xea;" glyph-name="ecircumflex" horiz-adv-x="523" d="M490 303T400 259T148 196Q151 65 262 65Q299 65 333 77T403 114L442 52Q353 -12 253 -12Q157 -12 105 44T52 202Q52 281 79 358T168 487T323 539Q403 539 446 500T490 405Q490 303 400
259ZM277 280T335 309T394 402Q394 426 377 446T322 466Q246 466 205 408T153 266Q277 280 335 309ZM320 792H380L499 679L455 634L342 718L208 634L171 679L320 792Z" />
<glyph unicode="&#xeb;" glyph-name="edieresis" horiz-adv-x="523" d="M490 303T400 259T148 196Q151 65 262 65Q299 65 333 77T403 114L442 52Q353 -12 253 -12Q157 -12 105 44T52 202Q52 281 79 358T168 487T323 539Q403 539 446 500T490 405Q490 303 400 259ZM277
280T335 309T394 402Q394 426 377 446T322 466Q246 466 205 408T153 266Q277 280 335 309ZM258 768T272 753T287 716Q287 690 270 672T227 654Q204 654 190 669T175 707Q175 733 192 750T235 768Q258 768 272 753ZM466 768T480 753T495 716Q495 690 478 672T434
654Q411 654 397 669T383 707Q383 733 400 750T442 768Q466 768 480 753Z" />
<glyph unicode="&#xec;" glyph-name="igrave" horiz-adv-x="280" d="M57 0L131 527H223L149 0H57ZM295 638L96 724L147 801L328 687L295 638Z" />
<glyph unicode="&#xed;" glyph-name="iacute" horiz-adv-x="280" d="M57 0L131 527H223L149 0H57ZM349 638L328 687L539 801L569 724L349 638Z" />
<glyph unicode="&#xee;" glyph-name="icircumflex" horiz-adv-x="280" d="M57 0L131 527H223L149 0H57ZM439 792H499L618 679L574 634L461 718L327 634L290 679L439 792Z" />
<glyph unicode="&#xef;" glyph-name="idieresis" horiz-adv-x="280" d="M57 0L131 527H223L149 0H57ZM377 768T391 753T406 716Q406 690 389 672T346 654Q323 654 309 669T294 707Q294 733 311 750T354 768Q377 768 391 753ZM585 768T599 753T614 716Q614 690
597 672T553 654Q530 654 516 669T502 707Q502 733 519 750T561 768Q585 768 599 753Z" />
<glyph unicode="&#xf0;" glyph-name="eth" horiz-adv-x="565" d="M455 608T483 539T512 377Q512 323 503 260Q485 135 415 62T240 -12Q155 -12 102 41T49 190Q49 257 72 322T148 431T281 475Q373 475 421 413Q418 475 398 522T335 610L252 539L192 571L277 647Q230
668 171 680L196 749Q283 731 336 699L418 776L466 729L392 660Q455 608 483 539ZM305 61T351 116T412 271Q416 301 418 328Q379 403 293 403Q208 403 175 339T142 188Q142 125 168 93T242 61Q305 61 351 116Z" />
<glyph unicode="&#xf1;" glyph-name="ntilde" horiz-adv-x="580" d="M443 539T476 504T510 408Q510 393 507 375L454 0H363L415 368Q418 386 418 398Q418 435 401 448T350 462Q310 462 268 421T191 316L148 0H57L131 527H209L201 424Q239 478 286 508T384 539Q443
539 476 504ZM392 656T376 664T342 686Q319 704 304 704Q286 704 272 692T241 656L189 688Q242 774 306 774Q328 774 343 767T376 745Q399 726 413 726Q429 726 443 737T474 772L528 740Q503 698 474 677T415 656Q392 656 376 664Z" />
<glyph unicode="&#xf2;" glyph-name="ograve" horiz-adv-x="578" d="M422 539T474 481T526 321Q526 248 499 172T411 42T254 -12Q157 -12 105 46T52 206Q52 280 79 356T168 486T325 539Q422 539 474 481ZM259 465T220 422T165 317T148 196Q148 62 257 62Q320 62
359 105T414 210T430 331Q430 465 322 465Q259 465 220 422ZM444 638L245 724L296 801L477 687L444 638Z" />
<glyph unicode="&#xf3;" glyph-name="oacute" horiz-adv-x="578" d="M422 539T474 481T526 321Q526 248 499 172T411 42T254 -12Q157 -12 105 46T52 206Q52 280 79 356T168 486T325 539Q422 539 474 481ZM259 465T220 422T165 317T148 196Q148 62 257 62Q320 62
359 105T414 210T430 331Q430 465 322 465Q259 465 220 422ZM242 638L221 687L432 801L462 724L242 638Z" />
<glyph unicode="&#xf4;" glyph-name="ocircumflex" horiz-adv-x="578" d="M422 539T474 481T526 321Q526 248 499 172T411 42T254 -12Q157 -12 105 46T52 206Q52 280 79 356T168 486T325 539Q422 539 474 481ZM259 465T220 422T165 317T148 196Q148 62 257 62Q320
62 359 105T414 210T430 331Q430 465 322 465Q259 465 220 422ZM332 792H392L511 679L467 634L354 718L220 634L183 679L332 792Z" />
<glyph unicode="&#xf5;" glyph-name="otilde" horiz-adv-x="578" d="M422 539T474 481T526 321Q526 248 499 172T411 42T254 -12Q157 -12 105 46T52 206Q52 280 79 356T168 486T325 539Q422 539 474 481ZM259 465T220 422T165 317T148 196Q148 62 257 62Q320 62
359 105T414 210T430 331Q430 465 322 465Q259 465 220 422ZM386 656T370 664T336 686Q313 704 298 704Q280 704 266 692T235 656L183 688Q236 774 300 774Q322 774 337 767T370 745Q393 726 407 726Q423 726 437 737T468 772L522 740Q497 698 468 677T409 656Q386
656 370 664Z" />
<glyph unicode="&#xf6;" glyph-name="odieresis" horiz-adv-x="578" d="M422 539T474 481T526 321Q526 248 499 172T411 42T254 -12Q157 -12 105 46T52 206Q52 280 79 356T168 486T325 539Q422 539 474 481ZM259 465T220 422T165 317T148 196Q148 62 257 62Q320
62 359 105T414 210T430 331Q430 465 322 465Q259 465 220 422ZM270 768T284 753T299 716Q299 690 282 672T239 654Q216 654 202 669T187 707Q187 733 204 750T247 768Q270 768 284 753ZM478 768T492 753T507 716Q507 690 490 672T446 654Q423 654 409 669T395
707Q395 733 412 750T454 768Q478 768 492 753Z" />
<glyph unicode="&#xf7;" glyph-name="divide" horiz-adv-x="494" d="M262 174T279 156T297 111Q297 79 275 57T222 35Q195 35 178 53T160 98Q160 130 181 152T234 174Q262 174 279 156ZM326 631T343 613T361 568Q361 536 339 514T286 492Q259 492 242 510T224
555Q224 587 245 609T298 631Q326 631 343 613ZM448 371L437 294H65L76 371H448Z" />
<glyph unicode="&#xf8;" glyph-name="oslash" horiz-adv-x="578" d="M446 506Q485 478 505 431T526 321Q526 248 499 172T411 42T254 -12Q228 -12 201 -7L146 -130L73 -108L133 21Q93 48 73 95T52 206Q52 280 79 356T168 486T325 539Q351 539 378 534L433 656L506
634L446 506ZM259 465T220 422T165 317T148 196Q148 119 178 89L353 462Q338 465 322 465Q259 465 220 422ZM246 62T257 62Q320 62 359 105T414 210T430 331Q430 404 402 437L226 64Q246 62 257 62Z" />
<glyph unicode="&#xf9;" glyph-name="ugrave" horiz-adv-x="576" d="M367 0L374 97Q335 43 294 16T200 -12Q138 -12 105 22T71 118Q71 128 73 152L126 527H217L165 156Q163 143 163 122Q163 88 177 74T220 60Q265 60 303 94T380 184L428 527H519L445 0H367ZM443
638L244 724L295 801L476 687L443 638Z" />
<glyph unicode="&#xfa;" glyph-name="uacute" horiz-adv-x="576" d="M367 0L374 97Q335 43 294 16T200 -12Q138 -12 105 22T71 118Q71 128 73 152L126 527H217L165 156Q163 143 163 122Q163 88 177 74T220 60Q265 60 303 94T380 184L428 527H519L445 0H367ZM241
638L220 687L431 801L461 724L241 638Z" />
<glyph unicode="&#xfb;" glyph-name="ucircumflex" horiz-adv-x="576" d="M367 0L374 97Q335 43 294 16T200 -12Q138 -12 105 22T71 118Q71 128 73 152L126 527H217L165 156Q163 143 163 122Q163 88 177 74T220 60Q265 60 303 94T380 184L428 527H519L445 0H367ZM331
792H391L510 679L466 634L353 718L219 634L182 679L331 792Z" />
<glyph unicode="&#xfc;" glyph-name="udieresis" horiz-adv-x="576" d="M367 0L374 97Q335 43 294 16T200 -12Q138 -12 105 22T71 118Q71 128 73 152L126 527H217L165 156Q163 143 163 122Q163 88 177 74T220 60Q265 60 303 94T380 184L428 527H519L445 0H367ZM269
768T283 753T298 716Q298 690 281 672T238 654Q215 654 201 669T186 707Q186 733 203 750T246 768Q269 768 283 753ZM477 768T491 753T506 716Q506 690 489 672T445 654Q422 654 408 669T394 707Q394 733 411 750T453 768Q477 768 491 753Z" />
<glyph unicode="&#xfd;" glyph-name="yacute" horiz-adv-x="486" d="M229 -96T164 -149T-5 -213L-9 -141Q44 -132 77 -115T133 -70T178 2L148 0L47 527H143L217 70L419 527H514L270 -5Q229 -96 164 -149ZM196 638L175 687L386 801L416 724L196 638Z" />
<glyph unicode="&#xfe;" glyph-name="thorn" horiz-adv-x="588" d="M444 539T486 485T528 332Q528 250 499 172T407 41T246 -12Q196 -12 148 8L119 -204L26 -217L161 739L253 750L214 474Q251 507 288 523T368 539Q444 539 486 485ZM314 61T354 103T414 210T433
339Q433 466 339 466Q301 466 269 446T203 390L160 78Q186 69 206 65T253 61Q314 61 354 103Z" />
<glyph unicode="&#xff;" glyph-name="ydieresis" horiz-adv-x="486" d="M229 -96T164 -149T-5 -213L-9 -141Q44 -132 77 -115T133 -70T178 2L148 0L47 527H143L217 70L419 527H514L270 -5Q229 -96 164 -149ZM224 768T238 753T253 716Q253 690 236 672T193 654Q170
654 156 669T141 707Q141 733 158 750T201 768Q224 768 238 753ZM432 768T446 753T461 716Q461 690 444 672T400 654Q377 654 363 669T349 707Q349 733 366 750T408 768Q432 768 446 753Z" />
<glyph unicode="&#x2013;" glyph-name="endash" horiz-adv-x="514" d="M495 352L484 274H32L43 352H495Z" />
<glyph unicode="&#x2014;" glyph-name="emdash" horiz-adv-x="780" d="M761 352L750 274H32L43 352H761Z" />
<glyph unicode="&#x2018;" glyph-name="quoteleft" horiz-adv-x="222" d="M133 490T117 505T100 545Q100 563 104 576T123 613L210 753H271L206 599Q228 583 228 553Q228 526 208 508T159 490Q133 490 117 505Z" />
<glyph unicode="&#x2019;" glyph-name="quoteright" horiz-adv-x="222" d="M189 753T205 738T222 698Q222 680 218 667T199 630L112 490H51L116 644Q94 660 94 690Q94 717 114 735T163 753Q189 753 205 738Z" />
<glyph unicode="&#x201a;" glyph-name="quotesinglbase" horiz-adv-x="222" d="M98 107T114 92T131 52Q131 34 127 21T108 -16L21 -156H-40L25 -2Q3 14 3 44Q3 71 23 89T72 107Q98 107 114 92Z" />
<glyph unicode="&#x201c;" glyph-name="quotedblleft" horiz-adv-x="400" d="M133 490T117 505T100 545Q100 563 104 576T123 613L210 753H271L206 599Q228 583 228 553Q228 526 208 508T159 490Q133 490 117 505ZM311 490T295 505T278 545Q278 563 282 576T301
613L388 753H449L384 599Q406 583 406 553Q406 526 386 508T337 490Q311 490 295 505Z" />
<glyph unicode="&#x201d;" glyph-name="quotedblright" horiz-adv-x="400" d="M189 753T205 738T222 698Q222 680 218 667T199 630L112 490H51L116 644Q94 660 94 690Q94 717 114 735T163 753Q189 753 205 738ZM367 753T383 738T400 698Q400 680 396 667T377 630L290
490H229L294 644Q272 660 272 690Q272 717 292 735T341 753Q367 753 383 738Z" />
<glyph unicode="&#x201e;" glyph-name="quotedblbase" horiz-adv-x="400" d="M98 107T114 92T131 52Q131 34 127 21T108 -16L21 -156H-40L25 -2Q3 14 3 44Q3 71 23 89T72 107Q98 107 114 92ZM276 107T292 92T309 52Q309 34 305 21T286 -16L199 -156H138L203 -2Q181
14 181 44Q181 71 201 89T250 107Q276 107 292 92Z" />
<glyph unicode="&#x2022;" glyph-name="bullet" horiz-adv-x="318" d="M226 454T253 426T281 354Q281 301 245 265T158 229Q114 229 87 257T59 328Q59 381 95 417T182 454Q226 454 253 426Z" />
<glyph unicode="&#x2039;" glyph-name="guilsinglleft" horiz-adv-x="334" d="M150 287L255 77L198 39L53 255L60 318L259 535L314 497L150 287Z" />
<glyph unicode="&#x203a;" glyph-name="guilsinglright" horiz-adv-x="334" d="M280 255L79 39L26 77L189 287L85 497L141 535L287 318L280 255Z" />
</font>
</defs>
</svg>
