<?xml version="1.0" standalone="no"?>
<!DOCTYPE svg PUBLIC "-//W3C//DTD SVG 1.1//EN" "http://www.w3.org/Graphics/SVG/1.1/DTD/svg11.dtd">
<svg xmlns="http://www.w3.org/2000/svg">
<defs >
<font id="Khand" horiz-adv-x="406" ><font-face
    font-family="Khand Light"
    units-per-em="1000"
    panose-1="2 0 0 0 0 0 0 0 0 0"
    ascent="1050"
    descent="-479"
    alphabetic="0" />
<glyph unicode=" " glyph-name="space" horiz-adv-x="190" />
<glyph unicode="!" glyph-name="exclam" horiz-adv-x="226" d="M79 -5T79 32T112 69T145 32T112 -5ZM85 666H140L134 159H91L85 666Z" />
<glyph unicode="&quot;" glyph-name="quotedbl" horiz-adv-x="310" d="M80 736H125V553H80V736ZM185 736H230V553H185V736Z" />
<glyph unicode="#" glyph-name="numbersign" horiz-adv-x="505" d="M486 443H402L366 201H445V164H361L337 0H294L318 164H162L138 0H95L119 164H37V201H124L160 443H78V480H165L189 644H232L208 480H364L388 644H431L407 480H486V443ZM323 201L359 443H203L167 201H323Z" />
<glyph unicode="$" glyph-name="dollar" horiz-adv-x="374" d="M339 186V134Q339 10 198 -3V-80H153V-5Q85 -4 34 14V62Q93 41 163 41Q289 41 289 134V183Q289 218 277 239T231 278L114 342Q30 388 30 479V537Q30 594 63 628T163 670V733H208V671Q267 670 316
656V608Q268 625 192 625Q80 625 80 539V482Q80 416 141 383L258 318Q339 274 339 186Z" />
<glyph unicode="%" glyph-name="percent" horiz-adv-x="526" d="M287 60T287 125T313 225T389 260T464 225T491 125T465 25T389 -10T314 25ZM446 32T446 125T389 218T332 125T389 32ZM35 476T35 541T61 641T137 676T212 641T239 541T213 441T137 406T62 441ZM194
448T194 541T137 634T80 541T137 448ZM370 666H412L157 0H115L370 666Z" />
<glyph unicode="&amp;" glyph-name="ampersand" horiz-adv-x="445" d="M428 364V319H388V143Q388 76 345 33T222 -10T98 33T53 143V211Q53 310 133 341Q54 371 54 472V526Q54 593 98 632T233 671Q299 671 358 652V602Q299 623 230 623T133 598T104 526V472Q104
364 203 364H338V421H388V364H428ZM338 143V319H205Q103 319 103 211V143Q103 94 133 65T221 35T308 64T338 143Z" />
<glyph unicode="&apos;" glyph-name="quotesingle" horiz-adv-x="203" d="M80 736H123V553H80V736Z" />
<glyph unicode="(" glyph-name="parenleft" horiz-adv-x="265" d="M115 322Q115 219 138 101T205 -120H160Q116 -27 93 94T70 322T93 550T160 763H205Q115 549 115 322Z" />
<glyph unicode=")" glyph-name="parenright" horiz-adv-x="265" d="M149 670T172 550T195 323T172 94T105 -120H60Q103 -18 126 100T150 322Q150 549 60 763H105Q149 670 172 550Z" />
<glyph unicode="*" glyph-name="asterisk" horiz-adv-x="479" d="M221 667V771H262V667Q262 637 253 612Q269 628 301 638L401 671L414 632L315 600Q283 589 260 591Q279 580 299 553L361 468L328 444L267 528Q246 557 242 578Q235 553 217 529L156 444L123 468L184
552Q205 580 224 591Q201 589 169 599L70 631L82 670L181 638Q213 628 231 612Q221 634 221 667Z" />
<glyph unicode="+" glyph-name="plus" horiz-adv-x="421" d="M381 343V303H233V152H188V303H40V343H188V493H233V343H381Z" />
<glyph unicode="," glyph-name="comma" horiz-adv-x="126" d="M69 69Q97 69 97 40T36 -124H4L44 69H69Z" />
<glyph unicode="-" glyph-name="hyphen" horiz-adv-x="206" d="M40 343H171V303H40V343Z" />
<glyph unicode="." glyph-name="period" horiz-adv-x="126" d="M30 -5T30 32T63 69T96 32T63 -5Z" />
<glyph unicode="/" glyph-name="slash" horiz-adv-x="357" d="M300 764H344L75 -120H31L300 764Z" />
<glyph unicode="0" glyph-name="zero" horiz-adv-x="440" d="M325 523Q325 631 220 631T115 523V143Q115 35 220 35T325 143V523ZM65 523Q65 592 103 634T220 676T337 634T375 523V143Q375 74 337 32T220 -10T103 32T65 143V523Z" />
<glyph unicode="1" glyph-name="one" horiz-adv-x="266" d="M191 666V0H141V622L10 527V585L123 666H191Z" />
<glyph unicode="2" glyph-name="two" horiz-adv-x="390" d="M174 671Q340 671 340 536V479Q339 420 323 388T261 325L187 276Q134 242 115 216T95 141V48H345V0H45V140Q45 205 72 241T159 316L233 365Q266 386 278 411T290 479V536Q290 581 266 603T177 625T55
606V655Q105 671 174 671Z" />
<glyph unicode="3" glyph-name="three" horiz-adv-x="385" d="M151 671Q316 671 316 533V464Q316 366 241 333Q320 304 320 206V134Q320 68 278 32T156 -5T26 13V63Q86 41 151 41T243 64T270 134V203Q270 311 165 311H99V356H165Q221 356 243 384T266 464V533Q266
578 241 601T151 625T38 609V657Q84 671 151 671Z" />
<glyph unicode="4" glyph-name="four" horiz-adv-x="390" d="M385 173V128H316V0H266V128H10V173L229 666H316V173H385ZM266 173V632L61 173H266Z" />
<glyph unicode="5" glyph-name="five" horiz-adv-x="413" d="M66 666H341V620H116V383Q166 389 206 389Q355 389 355 240V133Q355 68 312 32T194 -5T62 15V66Q124 41 183 41Q305 41 305 133V240Q305 292 284 316T206 341Q176 341 66 329V666Z" />
<glyph unicode="6" glyph-name="six" horiz-adv-x="425" d="M325 271Q325 364 227 364Q164 364 115 335V143Q115 35 220 35T325 143V271ZM65 521Q65 588 106 629T224 671T354 654V606Q300 625 233 625Q115 625 115 521V385Q165 410 231 410T336 375T375 271V143Q375
74 337 32T220 -10T103 32T65 143V521Z" />
<glyph unicode="7" glyph-name="seven" horiz-adv-x="314" d="M5 666H288V627L227 431Q193 321 179 252T165 97V0H114V97Q114 185 128 252T177 431L237 621H5V666Z" />
<glyph unicode="8" glyph-name="eight" horiz-adv-x="450" d="M382 527V462Q382 363 302 332Q385 300 385 201V139Q385 71 345 31T225 -10T106 30T65 139V201Q65 300 148 332Q68 363 68 462V527Q68 595 107 635T225 676T343 636T382 527ZM118 527V462Q118 354
225 354T332 462V527Q332 631 225 631T118 527ZM335 139V201Q335 309 225 309T115 201V139Q115 35 225 35T335 139Z" />
<glyph unicode="9" glyph-name="nine" horiz-adv-x="425" d="M310 523Q310 631 205 631T100 523V393Q100 295 200 295Q269 295 310 322V523ZM50 523Q50 592 88 634T205 676T322 634T360 523V144Q360 77 318 36T201 -5T67 14V63Q129 41 190 41Q310 41 310 144V272Q267
249 199 249T90 287T50 393V523Z" />
<glyph unicode=":" glyph-name="colon" horiz-adv-x="188" d="M30 -5T30 32T63 69T96 32T63 -5ZM30 345T30 382T63 419T96 382T63 345Z" />
<glyph unicode=";" glyph-name="semicolon" horiz-adv-x="183" d="M30 345T30 382T63 419T96 382T63 345ZM69 69Q97 69 97 40T36 -124H4L44 69H69Z" />
<glyph unicode="&lt;" glyph-name="less" horiz-adv-x="446" d="M386 490V445L80 322L386 200V155L45 291V353L386 490Z" />
<glyph unicode="=" glyph-name="equal" horiz-adv-x="421" d="M40 256H381V216H40V256ZM40 428H381V388H40V428Z" />
<glyph unicode="&gt;" glyph-name="greater" horiz-adv-x="446" d="M60 490L401 353V291L60 155V200L366 322L60 445V490Z" />
<glyph unicode="?" glyph-name="question" horiz-adv-x="367" d="M105 -5T105 32T138 69T171 32T138 -5ZM149 676Q317 676 317 542V440Q317 292 165 288L161 159H116L113 334H167Q267 334 267 440V542Q267 586 242 607T152 628T37 613V663Q89 676 149 676Z" />
<glyph unicode="@" glyph-name="at" horiz-adv-x="841" d="M508 -106H424Q241 -106 159 -10T76 270T159 551T425 648T690 557T773 282Q773 33 627 33Q554 33 526 79Q484 44 414 44Q278 44 278 158V169Q278 222 308 249T401 295L509 327V382Q509 421 491 441T426
462T304 445V490Q370 506 431 506T523 473T555 382V157Q555 114 572 95T627 76Q726 76 726 282Q726 445 656 525T425 606T194 521T123 271T193 21T424 -64H508V-106ZM328 169V157Q328 87 404 87Q435 87 461 95T509 120V281L408 251Q364 238 346 223T328 169Z" />
<glyph unicode="A" glyph-name="A" horiz-adv-x="424" d="M352 0L307 195H117L72 0H20L176 666H248L404 0H352ZM127 240H297L212 609L127 240Z" />
<glyph unicode="B" glyph-name="B" horiz-adv-x="461" d="M390 516V462Q390 367 315 336Q396 307 396 207V150Q396 82 356 41T237 0H75V666H231Q310 666 350 625T390 516ZM231 621H125V357H231Q340 357 340 462V516Q340 621 231 621ZM346 150V207Q346 312 237
312H125V45H237Q346 45 346 150Z" />
<glyph unicode="C" glyph-name="C" horiz-adv-x="389" d="M65 536Q65 671 234 671Q291 671 347 655V608Q290 625 229 625T142 603T115 536V130Q115 86 141 64T230 41T349 58V11Q299 -5 234 -5Q65 -5 65 130V536Z" />
<glyph unicode="D" glyph-name="D" horiz-adv-x="458" d="M343 516Q343 621 234 621H125V45H234Q343 45 343 150V516ZM75 666H234Q313 666 353 625T393 516V150Q393 82 353 41T234 0H75V666Z" />
<glyph unicode="E" glyph-name="E" horiz-adv-x="391" d="M75 666H351V621H125V358H322V313H125V45H351V0H75V666Z" />
<glyph unicode="F" glyph-name="F" horiz-adv-x="362" d="M75 666H342V621H125V348H333V303H125V0H75V666Z" />
<glyph unicode="G" glyph-name="G" horiz-adv-x="443" d="M65 530Q65 671 239 671Q299 671 355 655V606Q296 625 234 625Q115 625 115 530V130Q115 40 218 40Q289 40 323 64V319H373V34Q307 -5 229 -5T108 27T65 130V530Z" />
<glyph unicode="H" glyph-name="H" horiz-adv-x="485" d="M359 666H410V0H359V304H125V0H75V666H125V349H359V666Z" />
<glyph unicode="I" glyph-name="I" horiz-adv-x="200" d="M75 666H125V0H75V666Z" />
<glyph unicode="J" glyph-name="J" horiz-adv-x="200" d="M75 666H125V195Q125 73 92 -44L61 -149H11L41 -43Q75 75 75 194V666Z" />
<glyph unicode="K" glyph-name="K" horiz-adv-x="419" d="M75 666H125V0H75V666ZM337 666H392L247 332L399 0H343L192 330L337 666Z" />
<glyph unicode="L" glyph-name="L" horiz-adv-x="339" d="M75 666H125V45H334V0H75V666Z" />
<glyph unicode="M" glyph-name="M" horiz-adv-x="601" d="M526 666V0H478V384L481 582L332 180H268L118 582Q122 488 122 385V0H75V666H141L300 227L459 666H526Z" />
<glyph unicode="N" glyph-name="N" horiz-adv-x="491" d="M368 84L366 286V666H416V0H350Q159 484 122 580Q122 580 124 378V0H75V666H140Q356 116 368 84Z" />
<glyph unicode="O" glyph-name="O" horiz-adv-x="448" d="M333 523Q333 631 224 631T115 523V143Q115 35 224 35T333 143V523ZM65 523Q65 591 105 633T224 676T343 634T383 523V143Q383 75 343 33T224 -10T105 32T65 143V523Z" />
<glyph unicode="P" glyph-name="P" horiz-adv-x="431" d="M331 516Q331 621 222 621H125V284H222Q331 284 331 389V516ZM75 666H222Q301 666 341 625T381 516V389Q381 321 341 280T222 239H125V0H75V666Z" />
<glyph unicode="Q" glyph-name="Q" horiz-adv-x="448" d="M224 -10Q145 -10 105 32T65 143V523Q65 591 105 633T224 676T343 634T383 523V143Q383 55 321 15L427 -104H362L274 -5Q249 -10 224 -10ZM115 523V143Q115 35 224 35T333 143V523Q333 631 224 631T115 523Z" />
<glyph unicode="R" glyph-name="R" horiz-adv-x="450" d="M222 275H125V0H75V666H222Q301 666 341 625T381 516V425Q381 319 295 287L400 0H345L246 276Q238 275 222 275ZM125 322H222Q331 322 331 425V516Q331 621 222 621H125V322Z" />
<glyph unicode="S" glyph-name="S" horiz-adv-x="374" d="M30 537Q30 600 71 635T188 671T316 656V608Q268 625 192 625Q80 625 80 539V482Q80 416 141 383L258 318Q339 274 339 186V134Q339 68 296 32T170 -5T34 14V62Q93 41 163 41Q289 41 289 134V183Q289 218
277 239T231 278L114 342Q30 388 30 479V537Z" />
<glyph unicode="T" glyph-name="T" horiz-adv-x="334" d="M324 666V621H192V0H142V621H10V666H324Z" />
<glyph unicode="U" glyph-name="U" horiz-adv-x="458" d="M338 666H388V143Q388 75 348 33T229 -10T110 32T70 143V666H120V143Q120 35 229 35T338 143V666Z" />
<glyph unicode="V" glyph-name="V" horiz-adv-x="402" d="M335 666H387L237 0H165L15 666H67Q187 121 201 53Q218 138 335 666Z" />
<glyph unicode="W" glyph-name="W" horiz-adv-x="613" d="M536 666H588L472 0H400Q317 478 306 587Q296 478 274 352L213 0H141L25 666H77L151 220L177 45Q188 133 203 221L277 666H336L410 220L436 45Q453 163 536 666Z" />
<glyph unicode="X" glyph-name="X" horiz-adv-x="372" d="M302 666H357L211 333L357 0H302L186 272L70 0H15L160 333L15 666H70L186 393L302 666Z" />
<glyph unicode="Y" glyph-name="Y" horiz-adv-x="390" d="M220 0H170V230L5 666H57Q150 420 167 371T196 294Q206 322 226 378Q271 501 333 666H385L220 230V0Z" />
<glyph unicode="Z" glyph-name="Z" horiz-adv-x="371" d="M36 666H341V621L83 45H335V0H30V45L288 621H36V666Z" />
<glyph unicode="[" glyph-name="bracketleft" horiz-adv-x="275" d="M125 724V-80H249V-120H80V764H249V724H125Z" />
<glyph unicode="\" glyph-name="backslash" horiz-adv-x="367" d="M31 764H75L344 -120H300L31 764Z" />
<glyph unicode="]" glyph-name="bracketright" horiz-adv-x="275" d="M26 764H195V-120H26V-80H150V724H26V764Z" />
<glyph unicode="^" glyph-name="asciicircum" horiz-adv-x="285" d="M276 374H229L140 622L51 374H4L104 644H177L276 374Z" />
<glyph unicode="_" glyph-name="underscore" horiz-adv-x="453" d="M0 -15H453V-55H0V-15Z" />
<glyph unicode="`" glyph-name="grave" horiz-adv-x="350" d="M129 713H184L221 608H184L129 713Z" />
<glyph unicode="a" glyph-name="a" horiz-adv-x="422" d="M84 160V129Q84 83 105 62T178 40Q251 40 303 86V290L171 253Q122 238 103 217T84 160ZM188 568Q352 568 352 432V0H303V40Q284 25 270 17Q235 -4 175 -4Q35 -4 35 130V162Q35 261 155 295L303 337V432Q303
477 279 498T186 520T61 500V550Q117 568 188 568Z" />
<glyph unicode="b" glyph-name="b" horiz-adv-x="443" d="M328 432Q328 519 243 519Q201 519 125 491V45H220Q328 45 328 148V432ZM75 713H124V539Q192 566 249 566T342 531T378 432V148Q378 78 338 39T231 0H75V713Z" />
<glyph unicode="c" glyph-name="c" horiz-adv-x="369" d="M65 433Q65 568 226 568Q284 568 327 555V509Q282 522 222 522T138 500T115 433V129Q115 84 138 63T222 41T329 56V9Q279 -5 226 -5Q65 -5 65 129V433Z" />
<glyph unicode="d" glyph-name="d" horiz-adv-x="443" d="M318 517H223Q115 517 115 421V141Q115 42 210 42Q278 42 318 82V517ZM318 713H368V0H319V31Q275 -3 207 -3T102 34T65 142V421Q65 489 106 526T211 563H318V713Z" />
<glyph unicode="e" glyph-name="e" horiz-adv-x="437" d="M65 139V419Q65 488 103 530T221 573T338 531T377 419V252H115V139Q115 42 248 42Q302 42 359 59V10Q308 -5 248 -5Q65 -5 65 139ZM115 297H327V419Q327 528 221 528T115 419V297Z" />
<glyph unicode="f" glyph-name="f" horiz-adv-x="267" d="M97 605Q97 666 129 699T225 732Q249 732 267 729V683Q251 687 225 687Q147 687 147 605V563H259V518H147V0H97V518H40V563H97V605Z" />
<glyph unicode="g" glyph-name="g" horiz-adv-x="444" d="M419 548H386Q356 548 335 529Q369 492 369 430V352Q369 285 329 247T209 209Q144 209 144 148Q144 121 160 109T216 96H275Q409 96 409 -18V-28Q409 -149 235 -149H194Q99 -149 45 -121V-71Q106 -104
194 -104H234Q359 -104 359 -29V-18Q359 17 343 34T276 51H216Q160 51 129 73T98 136V152Q98 177 112 193T148 216Q49 242 49 352V430Q49 497 89 535T202 573T318 544Q336 599 404 599H419V548ZM319 352V430Q319 479 293 503T209 528T125 504T99 430V352Q99 303
125 279T209 254T293 278T319 352Z" />
<glyph unicode="h" glyph-name="h" horiz-adv-x="448" d="M75 713H124V537Q186 565 246 565T342 530T378 432V0H328V432Q328 519 243 519Q187 519 125 489V0H75V713Z" />
<glyph unicode="i" glyph-name="i" horiz-adv-x="200" d="M67 640T67 677T100 714T133 677T100 640ZM75 563H125V0H75V563Z" />
<glyph unicode="j" glyph-name="j" horiz-adv-x="200" d="M67 640T67 677T100 714T133 677T100 640ZM75 563H125V-20Q125 -150 1 -150Q-8 -150 -26 -148V-103Q-10 -105 1 -105Q40 -105 57 -86T75 -20V563Z" />
<glyph unicode="k" glyph-name="k" horiz-adv-x="394" d="M75 713H125V0H75V713ZM310 563H366L230 291L374 0H317L173 289L310 563Z" />
<glyph unicode="l" glyph-name="l" horiz-adv-x="200" d="M75 713H125V0H75V713Z" />
<glyph unicode="m" glyph-name="m" horiz-adv-x="701" d="M349 522Q421 565 489 565T594 530T631 432V0H581V432Q581 519 495 519Q433 519 371 480Q378 460 378 432V0H328V432Q328 519 242 519Q188 519 125 489V0H75V563H124V537Q194 565 242 565Q312 565 349 522Z" />
<glyph unicode="n" glyph-name="n" horiz-adv-x="448" d="M124 537Q194 565 249 565T341 530T378 432V0H328V432Q328 519 242 519Q188 519 125 489V0H75V563H124V537Z" />
<glyph unicode="o" glyph-name="o" horiz-adv-x="440" d="M325 420Q325 528 220 528T115 420V143Q115 35 220 35T325 143V420ZM65 420Q65 489 103 531T220 573T337 531T375 420V143Q375 74 337 32T220 -10T103 32T65 143V420Z" />
<glyph unicode="p" glyph-name="p" horiz-adv-x="443" d="M328 432Q328 519 242 519Q188 519 125 489V45H221Q328 45 328 150V432ZM124 536Q194 565 249 565T341 530T378 432V150Q378 81 338 41T232 0H125V-149H75V563H124V536Z" />
<glyph unicode="q" glyph-name="q" horiz-adv-x="443" d="M318 517H226Q173 517 144 492T115 415V141Q115 42 209 42Q278 42 318 82V517ZM215 563H368V-149H319V31Q275 -3 206 -3T101 34T65 142V415Q65 484 106 523T215 563Z" />
<glyph unicode="r" glyph-name="r" horiz-adv-x="272" d="M240 566H267V517H231Q201 517 186 508T166 495T147 481T125 465V0H75V563H124V519Q140 530 148 536T165 548T181 556T197 561Q214 566 240 566Z" />
<glyph unicode="s" glyph-name="s" horiz-adv-x="354" d="M30 435Q30 502 67 535T191 568Q246 568 299 551V503Q245 522 185 522T103 502T80 435V405Q80 367 94 348T144 314L231 275Q324 233 324 155V128Q324 -5 152 -5Q88 -5 35 12V60Q89 41 154 41T246 62T274
128V151Q274 182 261 199T208 233L117 273Q30 310 30 399V435Z" />
<glyph unicode="t" glyph-name="t" horiz-adv-x="283" d="M120 667V563H257V518H120V116Q120 76 139 59T199 42T268 52V6Q238 -3 187 -3T103 27T70 116V518H5V563H71L85 667H120Z" />
<glyph unicode="u" glyph-name="u" horiz-adv-x="448" d="M323 563H373V0H324V27Q278 -3 211 -3T107 34T70 142V563H120V142Q120 41 215 41Q244 41 271 50T323 77V563Z" />
<glyph unicode="v" glyph-name="v" horiz-adv-x="372" d="M300 563H352L226 0H146L20 563H72L186 32Q205 120 300 563Z" />
<glyph unicode="w" glyph-name="w" horiz-adv-x="591" d="M520 563H571L465 0H386L327 304L295 498Q281 391 264 304L205 0H126L20 563H71L165 40L264 563H327L425 40L520 563Z" />
<glyph unicode="x" glyph-name="x" horiz-adv-x="350" d="M289 563H340L200 281L340 0H289L175 230L61 0H10L149 281L10 563H61L175 333L289 563Z" />
<glyph unicode="y" glyph-name="y" horiz-adv-x="372" d="M300 563H352L192 -149H144L176 0H146L20 563H72L139 254L185 32Q210 156 300 563Z" />
<glyph unicode="z" glyph-name="z" horiz-adv-x="309" d="M26 563H289V518L67 45H288V0H20V45L237 518H26V563Z" />
<glyph unicode="{" glyph-name="braceleft" horiz-adv-x="335" d="M185 648V437Q185 383 167 355T101 322Q149 317 167 289T185 207V-4Q185 -78 278 -78H285V-120H277Q211 -120 176 -90T140 -4V227Q140 261 120 281T62 301H60V343H62Q100 343 120 363T140 417V648Q140
703 175 733T277 764H285V722H278Q185 722 185 648Z" />
<glyph unicode="|" glyph-name="bar" horiz-adv-x="203" d="M80 784H123V-140H80V784Z" />
<glyph unicode="}" glyph-name="braceright" horiz-adv-x="335" d="M273 343H275V301H273Q235 301 215 281T195 227V-4Q195 -59 160 -89T58 -120H50V-78H57Q150 -78 150 -4V207Q150 261 168 289T234 322Q186 327 168 355T150 437V648Q150 722 57 722H50V764H58Q124
764 159 734T195 648V417Q195 383 215 363T273 343Z" />
<glyph unicode="~" glyph-name="asciitilde" horiz-adv-x="375" d="M352 361Q352 309 310 291T221 296L147 332Q108 353 82 342T62 289H25Q23 299 23 310Q23 362 65 380T154 375L228 339Q269 317 294 328T313 382H350Q352 372 352 361Z" />
<glyph unicode="&#xa0;" glyph-name="uni00A0" horiz-adv-x="190" />
<glyph unicode="&#xa1;" glyph-name="exclamdown" horiz-adv-x="226" d="M140 -103H85L91 404H134L140 -103ZM79 494T79 531T112 568T145 531T112 494Z" />
<glyph unicode="&#xa2;" glyph-name="cent" horiz-adv-x="405" d="M257 -80H212V-4Q75 4 75 129V433Q75 557 211 567V653H256V568Q305 565 337 555V509Q291 522 231 522T148 500T125 433V129Q125 84 148 63T232 41T339 56V9Q298 -3 257 -4V-80Z" />
<glyph unicode="&#xa3;" glyph-name="sterling" horiz-adv-x="443" d="M410 48V0H43V48H52Q92 48 112 94Q120 115 120 144V324H59V366H120V522Q120 667 279 667Q339 667 404 646V596Q339 619 277 619T193 594T170 522V366H350V324H170V147Q170 110 158 86Q142
51 123 48H410Z" />
<glyph unicode="&#xa4;" glyph-name="currency" horiz-adv-x="460" d="M375 368V298Q375 256 363 226L407 183L372 148L334 185Q298 155 230 155T126 185L88 148L53 183L97 226Q85 256 85 298V368Q85 410 97 440L53 483L88 518L126 481Q162 511 230 511T334 481L372
518L407 483L363 440Q375 410 375 368ZM134 368V298Q134 246 154 223T230 199T306 222T326 298V368Q326 420 306 443T230 467T154 444T134 368Z" />
<glyph unicode="&#xa5;" glyph-name="yen" horiz-adv-x="449" d="M428 405V365H316L271 254H428V214H257V0H212V214H40V254H197L152 365H40V405H136L40 644H88L235 269L380 644H428L332 405H428Z" />
<glyph unicode="&#xa6;" glyph-name="brokenbar" horiz-adv-x="203" d="M80 235H123V-140H80V235ZM80 784H123V409H80V784Z" />
<glyph unicode="&#xa7;" glyph-name="section" horiz-adv-x="354" d="M88 258V248Q88 210 102 191T152 157L239 118Q332 76 332 -2V-16Q332 -149 160 -149Q90 -149 43 -134V-86Q91 -103 159 -103T255 -82T282 -19T269 41T216 76L125 116Q38 153 38 242V258H88ZM30
533Q30 600 67 633T178 666T299 651V603Q251 620 188 620T103 599T80 530T93 466T144 432L231 393Q324 351 324 273V257H274V269Q274 300 261 317T208 351L117 391Q30 428 30 517V533Z" />
<glyph unicode="&#xa8;" glyph-name="dieresis" horiz-adv-x="350" d="M204 626T204 659T237 692T270 659T237 626ZM79 626T79 659T112 692T145 659T112 626Z" />
<glyph unicode="&#xa9;" glyph-name="copyright" horiz-adv-x="681" d="M565 163T574 209T584 322T576 434T542 520Q494 600 342 600Q223 600 164 549Q114 505 102 412Q97 374 97 314T106 208T141 122Q191 44 342 44Q488 44 540 124Q565 163 574 209ZM226 374Q226
436 255 468T356 501Q398 501 429 494V447Q399 458 351 458T288 438T273 374V269Q273 229 283 214Q301 186 350 186T430 197V149Q392 142 356 142Q285 142 256 174T226 269V374ZM77 136T64 191T50 321T63 451T107 552Q170 644 342 644Q540 644 598 516Q631 443
631 321Q631 86 482 24Q424 0 341 0T200 23T109 91Z" />
<glyph unicode="&#xaa;" glyph-name="ordfeminine" horiz-adv-x="340" d="M74 435V398Q74 358 91 341T146 323Q224 323 252 364V518L153 503Q74 490 74 435ZM170 745Q292 745 292 643V289H252V324Q238 307 210 298T151 288Q89 288 62 315T34 398V435Q34 520 146
539L252 556V648Q250 678 232 692T162 707T51 686V726Q106 745 170 745Z" />
<glyph unicode="&#xab;" glyph-name="guillemotleft" horiz-adv-x="418" d="M182 505H235L113 322L235 139H182L61 322L182 505ZM346 505H399L277 322L399 139H346L225 322L346 505Z" />
<glyph unicode="&#xac;" glyph-name="logicalnot" horiz-adv-x="435" d="M75 349H360V208H309V304H75V349Z" />
<glyph unicode="&#xad;" glyph-name="uni00AD" horiz-adv-x="206" d="M40 343H171V303H40V343Z" />
<glyph unicode="&#xae;" glyph-name="registered" horiz-adv-x="486" d="M64 623T105 671T254 720T402 672T444 517T403 363T254 315T105 362T64 516ZM104 419T132 384T253 349T375 384T404 516T375 650T253 686T133 651T104 517ZM183 644H251Q336 644 336 568Q336
514 301 496L347 392H305L266 488Q261 487 250 487H221V392H183V644ZM221 519H247Q277 519 289 529T302 567T291 603T254 611H221V519Z" />
<glyph unicode="&#xaf;" glyph-name="overscore" horiz-adv-x="350" d="M70 680H280V641H70V680Z" />
<glyph unicode="&#xb0;" glyph-name="degree" horiz-adv-x="352" d="M264 598T264 643T247 713T179 738T112 714T95 643T112 573T179 549T246 573ZM55 510T55 644T179 779T304 645T180 510Z" />
<glyph unicode="&#xb1;" glyph-name="plusminus" horiz-adv-x="421" d="M233 343H381V303H233V152H188V303H40V343H188V493H233V343ZM40 53V93H381V53H40Z" />
<glyph unicode="&#xb2;" glyph-name="twosuperior" horiz-adv-x="290" d="M138 745Q260 745 260 643V626Q260 584 247 558T196 506L135 465Q88 433 78 418T67 365V327H263V289H27V363Q27 412 45 438T115 498L178 539Q204 556 212 575T220 626V643Q220 676 203
691T136 707T41 697V736Q86 745 138 745Z" />
<glyph unicode="&#xb3;" glyph-name="threesuperior" horiz-adv-x="309" d="M134 745Q255 745 258 648V608Q258 539 211 520Q258 502 258 435V387Q258 285 133 285Q78 285 34 296V335Q87 323 133 323T199 338T218 387V435Q218 467 204 483T145 501H102V539H145Q189
539 203 557T218 608V643Q218 676 200 691T138 707T46 699V738Q86 745 134 745Z" />
<glyph unicode="&#xb4;" glyph-name="acute" horiz-adv-x="350" d="M166 713H221L166 608H129L166 713Z" />
<glyph unicode="&#xb5;" glyph-name="uni00B5" horiz-adv-x="453" d="M328 563H378V0H329V27Q283 -2 223 -2T125 14V-151H75V563H125V65Q154 43 220 43Q249 43 276 52T328 81V563Z" />
<glyph unicode="&#xb6;" glyph-name="paragraph" horiz-adv-x="388" d="M225 667H312V1H262V366H225Q146 366 106 407T66 516T106 626T225 667Z" />
<glyph unicode="&#xb7;" glyph-name="middot" horiz-adv-x="196" d="M67 311T67 344T100 377T133 344T100 311Z" />
<glyph unicode="&#xb8;" glyph-name="cedilla" horiz-adv-x="350" d="M204 -42T223 -59T242 -109T218 -160T159 -179T107 -172V-139Q125 -147 152 -147Q208 -147 208 -107T150 -67H136L151 6H182L172 -40Q204 -42 223 -59Z" />
<glyph unicode="&#xb9;" glyph-name="onesuperior" horiz-adv-x="226" d="M168 741V289H128V703L26 622V671L117 741H168Z" />
<glyph unicode="&#xba;" glyph-name="ordmasculine" horiz-adv-x="340" d="M250 678T232 692T170 707T107 693T88 648V387Q88 354 105 339T170 323T234 338T252 387V648Q250 678 232 692ZM48 643Q48 745 170 745T292 643V387Q292 285 170 285T48 387V643Z" />
<glyph unicode="&#xbb;" glyph-name="guillemotright" horiz-adv-x="418" d="M19 505H72L193 322L72 139H19L141 322L19 505ZM183 505H236L357 322L236 139H183L305 322L183 505Z" />
<glyph unicode="&#xbc;" glyph-name="onequarter" horiz-adv-x="776" d="M475 666H517L202 0H160L475 666ZM627 141V422L476 141H627ZM665 452V141H716V104H665V0H627V104H436V141L604 452H665ZM182 666V214H142V628L40 547V596L131 666H182Z" />
<glyph unicode="&#xbd;" glyph-name="onehalf" horiz-adv-x="763" d="M475 666H517L202 0H160L475 666ZM182 666V214H142V628L40 547V596L131 666H182ZM578 456Q700 456 700 354V337Q700 295 687 269T636 217L575 176Q528 144 518 129T507 76V38H703V0H467V74Q467
122 485 148T555 209L618 250Q644 267 652 286T660 337V354Q660 387 643 402T576 418T481 408V447Q526 456 578 456Z" />
<glyph unicode="&#xbe;" glyph-name="threequarters" horiz-adv-x="820" d="M140 671Q261 671 264 574V534Q264 465 217 446Q264 428 264 361V313Q264 211 139 211Q84 211 40 222V261Q93 249 139 249T205 264T224 313V361Q224 393 210 409T151 427H108V465H151Q195
465 209 483T224 534V569Q224 602 206 617T144 633T52 625V664Q92 671 140 671ZM539 666H581L266 0H224L539 666ZM671 141V422L520 141H671ZM709 452V141H760V104H709V0H671V104H480V141L648 452H709Z" />
<glyph unicode="&#xbf;" glyph-name="questiondown" horiz-adv-x="367" d="M249 568T249 531T216 494T183 531T216 568ZM205 -113Q37 -113 37 21V123Q37 271 189 275L193 404H238L241 229H187Q87 229 87 123V21Q87 -23 112 -44T202 -65T317 -50V-100Q265 -113 205 -113Z" />
<glyph unicode="&#xc0;" glyph-name="Agrave" horiz-adv-x="424" d="M352 0L307 195H117L72 0H20L176 666H248L404 0H352ZM127 240H297L212 609L127 240ZM224 708H187L132 813H187L224 708Z" />
<glyph unicode="&#xc1;" glyph-name="Aacute" horiz-adv-x="424" d="M352 0L307 195H117L72 0H20L176 666H248L404 0H352ZM127 240H297L212 609L127 240ZM287 813L232 708H195L232 813H287Z" />
<glyph unicode="&#xc2;" glyph-name="Acircumflex" horiz-adv-x="424" d="M352 0L307 195H117L72 0H20L176 666H248L404 0H352ZM127 240H297L212 609L127 240ZM213 776L178 708H142L190 813H236L284 708H248L213 776Z" />
<glyph unicode="&#xc3;" glyph-name="Atilde" horiz-adv-x="424" d="M352 0L307 195H117L72 0H20L176 666H248L404 0H352ZM127 240H297L212 609L127 240ZM144 732V719H101V735Q101 764 116 782T160 801T223 781T271 760Q293 760 293 790V803H336V787Q336 756 321
739T279 721T218 741T167 762Q144 762 144 732Z" />
<glyph unicode="&#xc4;" glyph-name="Adieresis" horiz-adv-x="424" d="M352 0L307 195H117L72 0H20L176 666H248L404 0H352ZM127 240H297L212 609L127 240ZM182 726T149 726T116 759T149 792T182 759ZM307 726T274 726T241 759T274 792T307 759Z" />
<glyph unicode="&#xc5;" glyph-name="Aring" horiz-adv-x="424" d="M352 0L307 195H117L72 0H20L176 666H248L404 0H352ZM127 240H297L212 609L127 240ZM284 730T265 710T213 690T160 710T140 761T159 811T212 831T265 811T284 761ZM229 798T212 798T185 788T175
761T185 734T212 723T239 733T249 761T239 788Z" />
<glyph unicode="&#xc6;" glyph-name="AE" horiz-adv-x="642" d="M630 621H404V358H601V313H404V45H630V0H354V195H155L65 0H10L323 666H630V621ZM354 240V625L176 240H354Z" />
<glyph unicode="&#xc7;" glyph-name="Ccedilla" horiz-adv-x="389" d="M259 -42T278 -59T297 -109T273 -160T214 -179T162 -172V-139Q180 -147 207 -147Q263 -147 263 -107T205 -67H191L204 -4Q65 8 65 130V536Q65 671 234 671Q291 671 347 655V608Q290 625 229
625T142 603T115 536V130Q115 86 141 64T230 41T349 58V11Q299 -5 235 -5L227 -40Q259 -42 278 -59Z" />
<glyph unicode="&#xc8;" glyph-name="Egrave" horiz-adv-x="391" d="M140 813H195L232 708H195L140 813ZM75 666H351V621H125V358H322V313H125V45H351V0H75V666Z" />
<glyph unicode="&#xc9;" glyph-name="Eacute" horiz-adv-x="391" d="M75 666H351V621H125V358H322V313H125V45H351V0H75V666ZM234 813H289L234 708H197L234 813Z" />
<glyph unicode="&#xca;" glyph-name="Ecircumflex" horiz-adv-x="391" d="M351 621H125V358H322V313H125V45H351V0H75V666H351V621ZM208 776L173 708H137L185 813H231L279 708H243L208 776Z" />
<glyph unicode="&#xcb;" glyph-name="Edieresis" horiz-adv-x="391" d="M75 666H351V621H125V358H322V313H125V45H351V0H75V666ZM245 726T245 759T278 792T311 759T278 726ZM120 726T120 759T153 792T186 759T153 726Z" />
<glyph unicode="&#xcc;" glyph-name="Igrave" horiz-adv-x="391" d="M142 813H197L234 708H197L142 813ZM75 666H351V621H125V358H322V313H125V45H351V0H75V666Z" />
<glyph unicode="&#xcd;" glyph-name="Iacute" horiz-adv-x="391" d="M75 666H351V621H125V358H322V313H125V45H351V0H75V666ZM234 813H289L234 708H197L234 813Z" />
<glyph unicode="&#xce;" glyph-name="Icircumflex" horiz-adv-x="200" d="M129 813L177 708H141L106 776L71 708H35L83 813H129ZM75 0V666H125V0H75Z" />
<glyph unicode="&#xcf;" glyph-name="Idieresis" horiz-adv-x="200" d="M128 726T128 759T161 792T194 759T161 726ZM3 726T3 759T36 792T69 759T36 726ZM75 666H125V0H75V666Z" />
<glyph unicode="&#xd0;" glyph-name="Eth" horiz-adv-x="458" d="M75 666H234Q313 666 353 625T393 516V150Q393 82 353 41T234 0H75V304H-1V349H75V666ZM343 150V516Q343 621 234 621H125V349H247V304H125V45H234Q343 45 343 150Z" />
<glyph unicode="&#xd1;" glyph-name="Ntilde" horiz-adv-x="491" d="M329 803H372V787Q372 756 357 739T315 721T254 741T203 762Q180 762 180 732V719H137V735Q137 764 152 782T196 801T259 781T307 760Q329 760 329 790V803ZM368 84L366 286V666H416V0H350Q159
484 122 580L124 378V0H75V666H140Q356 116 368 84Z" />
<glyph unicode="&#xd2;" glyph-name="Ograve" horiz-adv-x="448" d="M143 813H198L235 708H198L143 813ZM333 523Q333 631 224 631T115 523V143Q115 35 224 35T333 143V523ZM65 523Q65 591 105 633T224 676T343 634T383 523V143Q383 75 343 33T224 -10T105 32T65
143V523Z" />
<glyph unicode="&#xd3;" glyph-name="Oacute" horiz-adv-x="448" d="M333 523Q333 631 224 631T115 523V143Q115 35 224 35T333 143V523ZM65 523Q65 591 105 633T224 676T343 634T383 523V143Q383 75 343 33T224 -10T105 32T65 143V523ZM241 813H296L241 708H204L241
813Z" />
<glyph unicode="&#xd4;" glyph-name="Ocircumflex" horiz-adv-x="448" d="M65 143V523Q65 591 105 633T224 676T343 634T383 523V143Q383 75 343 33T224 -10T105 32T65 143ZM333 143V523Q333 631 224 631T115 523V143Q115 35 224 35T333 143ZM223 776L188 708H152L200
813H246L294 708H258L223 776Z" />
<glyph unicode="&#xd5;" glyph-name="Otilde" horiz-adv-x="448" d="M300 803H343V787Q343 756 328 739T286 721T225 741T174 762Q151 762 151 732V719H108V735Q108 764 123 782T167 801T230 781T278 760Q300 760 300 790V803ZM333 523Q333 631 224 631T115 523V143Q115
35 224 35T333 143V523ZM65 523Q65 591 105 633T224 676T343 634T383 523V143Q383 75 343 33T224 -10T105 32T65 143V523Z" />
<glyph unicode="&#xd6;" glyph-name="Odieresis" horiz-adv-x="448" d="M333 523Q333 631 224 631T115 523V143Q115 35 224 35T333 143V523ZM65 523Q65 591 105 633T224 676T343 634T383 523V143Q383 75 343 33T224 -10T105 32T65 143V523ZM253 726T253 759T286
792T319 759T286 726ZM128 726T128 759T161 792T194 759T161 726Z" />
<glyph unicode="&#xd7;" glyph-name="multiply" horiz-adv-x="343" d="M316 439L200 323L316 206L288 178L172 295L55 178L27 206L144 323L27 439L55 467L172 351L288 467L316 439Z" />
<glyph unicode="&#xd8;" glyph-name="Oslash" horiz-adv-x="448" d="M383 523V143Q383 75 343 33T231 -10T118 21L109 0H65L88 55Q65 91 65 143V523Q65 591 105 633T217 676T330 645L339 666H383L360 611Q383 575 383 523ZM115 523V143Q115 130 116 124L311 598Q284
631 224 631Q115 631 115 523ZM333 143V523Q333 536 332 542L137 68Q164 35 224 35Q333 35 333 143Z" />
<glyph unicode="&#xd9;" glyph-name="Ugrave" horiz-adv-x="458" d="M155 813H210L247 708H210L155 813ZM338 666H388V143Q388 75 348 33T229 -10T110 32T70 143V666H120V143Q120 35 229 35T338 143V666Z" />
<glyph unicode="&#xda;" glyph-name="Uacute" horiz-adv-x="458" d="M338 666H388V143Q388 75 348 33T229 -10T110 32T70 143V666H120V143Q120 35 229 35T338 143V666ZM248 813H303L248 708H211L248 813Z" />
<glyph unicode="&#xdb;" glyph-name="Ucircumflex" horiz-adv-x="458" d="M338 666H388V143Q388 75 348 33T229 -10T110 32T70 143V666H120V143Q120 35 229 35T338 143V666ZM228 776L193 708H157L205 813H251L299 708H263L228 776Z" />
<glyph unicode="&#xdc;" glyph-name="Udieresis" horiz-adv-x="458" d="M338 666H388V143Q388 75 348 33T229 -10T110 32T70 143V666H120V143Q120 35 229 35T338 143V666ZM258 726T258 759T291 792T324 759T291 726ZM133 726T133 759T166 792T199 759T166 726Z" />
<glyph unicode="&#xdd;" glyph-name="Yacute" horiz-adv-x="390" d="M211 813H266L211 708H174L211 813ZM220 0H170V230L5 666H57Q150 420 167 371T196 294Q206 322 226 378Q271 501 333 666H385L220 230V0Z" />
<glyph unicode="&#xde;" glyph-name="Thorn" horiz-adv-x="423" d="M135 540H232Q311 540 351 499T391 390V276Q391 208 351 167T232 126H135V0H85V666H135V540ZM341 276V390Q341 495 232 495H135V173H232Q341 173 341 276Z" />
<glyph unicode="&#xdf;" glyph-name="germandbls" horiz-adv-x="528" d="M75 557Q75 713 253 713Q328 713 372 675T416 570Q416 535 401 505T368 458Q319 413 319 380V370Q319 345 334 326T404 280T482 226T506 157V132Q506 68 463 32T345 -5T217 12V62Q271 43
334 43Q456 43 456 132V153Q456 184 443 201T375 246T295 299T270 368V379Q270 408 285 433T318 473T351 513T366 570Q366 667 253 667Q186 667 156 640T125 557V0H75V557Z" />
<glyph unicode="&#xe0;" glyph-name="agrave" horiz-adv-x="422" d="M132 713H187L224 608H187L132 713ZM84 160V129Q84 83 105 62T178 40Q251 40 303 86V290L171 253Q122 238 103 217T84 160ZM188 568Q352 568 352 432V0H303V40Q284 25 270 17Q235 -4 175 -4Q35
-4 35 130V162Q35 261 155 295L303 337V432Q303 477 279 498T186 520T61 500V550Q117 568 188 568Z" />
<glyph unicode="&#xe1;" glyph-name="aacute" horiz-adv-x="422" d="M224 713H279L224 608H187L224 713ZM84 160V129Q84 83 105 62T178 40Q251 40 303 86V290L171 253Q122 238 103 217T84 160ZM188 568Q352 568 352 432V0H303V40Q284 25 270 17Q235 -4 175 -4Q35
-4 35 130V162Q35 261 155 295L303 337V432Q303 477 279 498T186 520T61 500V550Q117 568 188 568Z" />
<glyph unicode="&#xe2;" glyph-name="acircumflex" horiz-adv-x="422" d="M188 568Q352 568 352 432V0H303V40Q284 25 270 17Q235 -4 175 -4Q35 -4 35 130V162Q35 261 155 295L303 337V432Q303 477 279 498T186 520T61 500V550Q117 568 188 568ZM84 160V129Q84
83 105 62T178 40Q251 40 303 86V290L171 253Q122 238 103 217T84 160ZM215 676L180 608H144L192 713H238L286 608H250L215 676Z" />
<glyph unicode="&#xe3;" glyph-name="atilde" horiz-adv-x="422" d="M286 703H329V687Q329 656 314 639T272 621T211 641T160 662Q137 662 137 632V619H94V635Q94 664 109 682T153 701T216 681T264 660Q286 660 286 690V703ZM84 160V129Q84 83 105 62T178 40Q251
40 303 86V290L171 253Q122 238 103 217T84 160ZM188 568Q352 568 352 432V0H303V40Q284 25 270 17Q235 -4 175 -4Q35 -4 35 130V162Q35 261 155 295L303 337V432Q303 477 279 498T186 520T61 500V550Q117 568 188 568Z" />
<glyph unicode="&#xe4;" glyph-name="adieresis" horiz-adv-x="422" d="M239 626T239 659T272 692T305 659T272 626ZM114 626T114 659T147 692T180 659T147 626ZM84 160V129Q84 83 105 62T178 40Q251 40 303 86V290L171 253Q122 238 103 217T84 160ZM188 568Q352
568 352 432V0H303V40Q284 25 270 17Q235 -4 175 -4Q35 -4 35 130V162Q35 261 155 295L303 337V432Q303 477 279 498T186 520T61 500V550Q117 568 188 568Z" />
<glyph unicode="&#xe5;" glyph-name="aring" horiz-adv-x="422" d="M246 644T246 661T236 688T209 698T182 688T172 661T182 634T209 623T236 633ZM137 631T137 661T156 711T209 731T262 711T281 661T262 610T210 590T157 610ZM84 160V129Q84 83 105 62T178 40Q251
40 303 86V290L171 253Q122 238 103 217T84 160ZM188 568Q352 568 352 432V0H303V40Q284 25 270 17Q235 -4 175 -4Q35 -4 35 130V162Q35 261 155 295L303 337V432Q303 477 279 498T186 520T61 500V550Q117 568 188 568Z" />
<glyph unicode="&#xe6;" glyph-name="ae" horiz-adv-x="648" d="M568 419Q568 528 462 528Q353 528 353 419V297H568V419ZM84 160V129Q84 83 105 62T178 40Q257 40 303 81V290L171 253Q122 238 103 217T84 160ZM331 513Q375 573 458 573T579 531T618 419V252H353V139Q353
42 489 42Q543 42 600 59V10Q549 -5 489 -5Q377 -5 333 48Q274 -4 175 -4Q35 -4 35 130V162Q35 261 155 295L303 337V432Q303 477 279 498T186 520T61 500V550Q117 568 188 568Q292 568 331 513Z" />
<glyph unicode="&#xe7;" glyph-name="ccedilla" horiz-adv-x="369" d="M226 -5H222L214 -40Q246 -42 265 -59T284 -109T260 -160T201 -179T149 -172V-139Q167 -147 194 -147Q250 -147 250 -107T192 -67H178L191 -3Q65 9 65 129V433Q65 568 226 568Q284 568 327
555V509Q282 522 222 522T138 500T115 433V129Q115 84 138 63T222 41T329 56V9Q279 -5 226 -5Z" />
<glyph unicode="&#xe8;" glyph-name="egrave" horiz-adv-x="437" d="M65 139V419Q65 488 103 530T221 573T338 531T377 419V252H115V139Q115 42 248 42Q302 42 359 59V10Q308 -5 248 -5Q65 -5 65 139ZM115 297H327V419Q327 528 221 528T115 419V297ZM248 608H211L156
713H211L248 608Z" />
<glyph unicode="&#xe9;" glyph-name="eacute" horiz-adv-x="437" d="M65 139V419Q65 488 103 530T221 573T338 531T377 419V252H115V139Q115 42 248 42Q302 42 359 59V10Q308 -5 248 -5Q65 -5 65 139ZM115 297H327V419Q327 528 221 528T115 419V297ZM302 713L247
608H210L247 713H302Z" />
<glyph unicode="&#xea;" glyph-name="ecircumflex" horiz-adv-x="437" d="M65 139V419Q65 488 103 530T221 573T338 531T377 419V252H115V139Q115 42 248 42Q302 42 359 59V10Q308 -5 248 -5Q65 -5 65 139ZM115 297H327V419Q327 528 221 528T115 419V297ZM229
676L194 608H158L206 713H252L300 608H264L229 676Z" />
<glyph unicode="&#xeb;" glyph-name="edieresis" horiz-adv-x="437" d="M65 139V419Q65 488 103 530T221 573T338 531T377 419V252H115V139Q115 42 248 42Q302 42 359 59V10Q308 -5 248 -5Q65 -5 65 139ZM115 297H327V419Q327 528 221 528T115 419V297ZM195 626T162
626T129 659T162 692T195 659ZM320 626T287 626T254 659T287 692T320 659Z" />
<glyph unicode="&#xec;" glyph-name="igrave" horiz-adv-x="200" d="M27 713H82L119 608H82L27 713ZM75 563H125V0H75V563Z" />
<glyph unicode="&#xed;" glyph-name="iacute" horiz-adv-x="200" d="M119 713H174L119 608H82L119 713ZM75 563H125V0H75V563Z" />
<glyph unicode="&#xee;" glyph-name="icircumflex" horiz-adv-x="200" d="M124 713L172 608H136L101 676L66 608H30L78 713H124ZM75 0V563H125V0H75Z" />
<glyph unicode="&#xef;" glyph-name="idieresis" horiz-adv-x="200" d="M130 626T130 659T163 692T196 659T163 626ZM5 626T5 659T38 692T71 659T38 626ZM75 563H125V0H75V563Z" />
<glyph unicode="&#xf0;" glyph-name="eth" horiz-adv-x="453" d="M380 306V143Q380 74 342 32T225 -10T108 32T70 143V285Q70 354 108 396T225 438Q282 438 317 410Q300 481 256 558L147 500V545L234 591Q204 636 171 666H240Q259 647 280 615L381 669V625L301
582Q380 444 380 306ZM330 143V353Q292 393 225 393Q120 393 120 285V143Q120 35 225 35T330 143Z" />
<glyph unicode="&#xf1;" glyph-name="ntilde" horiz-adv-x="448" d="M304 703H347V687Q347 656 332 639T290 621T229 641T178 662Q155 662 155 632V619H112V635Q112 664 127 682T171 701T234 681T282 660Q304 660 304 690V703ZM124 537Q194 565 249 565T341 530T378
432V0H328V432Q328 519 242 519Q188 519 125 489V0H75V563H124V537Z" />
<glyph unicode="&#xf2;" glyph-name="ograve" horiz-adv-x="440" d="M149 713H204L241 608H204L149 713ZM325 420Q325 528 220 528T115 420V143Q115 35 220 35T325 143V420ZM65 420Q65 489 103 531T220 573T337 531T375 420V143Q375 74 337 32T220 -10T103 32T65
143V420Z" />
<glyph unicode="&#xf3;" glyph-name="oacute" horiz-adv-x="440" d="M325 420Q325 528 220 528T115 420V143Q115 35 220 35T325 143V420ZM65 420Q65 489 103 531T220 573T337 531T375 420V143Q375 74 337 32T220 -10T103 32T65 143V420ZM243 713H298L243 608H206L243
713Z" />
<glyph unicode="&#xf4;" glyph-name="ocircumflex" horiz-adv-x="440" d="M65 143V420Q65 489 103 531T220 573T337 531T375 420V143Q375 74 337 32T220 -10T103 32T65 143ZM325 143V420Q325 528 220 528T115 420V143Q115 35 220 35T325 143ZM224 676L189 608H153L201
713H247L295 608H259L224 676Z" />
<glyph unicode="&#xf5;" glyph-name="otilde" horiz-adv-x="440" d="M300 703H343V687Q343 656 328 639T286 621T225 641T174 662Q151 662 151 632V619H108V635Q108 664 123 682T167 701T230 681T278 660Q300 660 300 690V703ZM325 420Q325 528 220 528T115 420V143Q115
35 220 35T325 143V420ZM65 420Q65 489 103 531T220 573T337 531T375 420V143Q375 74 337 32T220 -10T103 32T65 143V420Z" />
<glyph unicode="&#xf6;" glyph-name="odieresis" horiz-adv-x="440" d="M325 420Q325 528 220 528T115 420V143Q115 35 220 35T325 143V420ZM65 420Q65 489 103 531T220 573T337 531T375 420V143Q375 74 337 32T220 -10T103 32T65 143V420ZM257 626T257 659T290
692T323 659T290 626ZM132 626T132 659T165 692T198 659T165 626Z" />
<glyph unicode="&#xf7;" glyph-name="divide" horiz-adv-x="421" d="M181 458T181 491T214 524T247 491T214 458ZM181 115T181 148T214 181T247 148T214 115ZM40 341H381V301H40V341Z" />
<glyph unicode="&#xf8;" glyph-name="oslash" horiz-adv-x="440" d="M375 420V143Q375 74 337 32T220 -10Q163 -10 125 14L119 0H75L94 43Q65 81 65 143V420Q65 489 103 531T212 573T322 544L331 563H375L352 512Q375 475 375 420ZM115 420V143Q115 121 120 99L302
499Q275 528 220 528Q115 528 115 420ZM325 143V420Q325 431 323 449L145 58Q171 35 220 35Q325 35 325 143Z" />
<glyph unicode="&#xf9;" glyph-name="ugrave" horiz-adv-x="448" d="M147 713H202L239 608H202L147 713ZM323 563H373V0H324V27Q278 -3 211 -3T107 34T70 142V563H120V142Q120 41 215 41Q244 41 271 50T323 77V563Z" />
<glyph unicode="&#xfa;" glyph-name="uacute" horiz-adv-x="448" d="M323 563H373V0H324V27Q278 -3 211 -3T107 34T70 142V563H120V142Q120 41 215 41Q244 41 271 50T323 77V563ZM239 713H294L239 608H202L239 713Z" />
<glyph unicode="&#xfb;" glyph-name="ucircumflex" horiz-adv-x="448" d="M323 563H373V0H324V27Q278 -3 211 -3T107 34T70 142V563H120V142Q120 41 215 41Q244 41 271 50T323 77V563ZM223 676L188 608H152L200 713H246L294 608H258L223 676Z" />
<glyph unicode="&#xfc;" glyph-name="udieresis" horiz-adv-x="448" d="M323 563H373V0H324V27Q278 -3 211 -3T107 34T70 142V563H120V142Q120 41 215 41Q244 41 271 50T323 77V563ZM254 626T254 659T287 692T320 659T287 626ZM129 626T129 659T162 692T195 659T162 626Z" />
<glyph unicode="&#xfd;" glyph-name="yacute" horiz-adv-x="372" d="M204 713H259L204 608H167L204 713ZM300 563H352L192 -149H144L176 0H146L20 563H72L139 254L185 32Q210 156 300 563Z" />
<glyph unicode="&#xfe;" glyph-name="thorn" horiz-adv-x="453" d="M328 432Q328 519 242 519Q188 519 125 489V45H221Q328 45 328 150V432ZM75 713H124V537Q194 565 249 565T341 530T378 432V150Q378 81 338 41T232 0H125V-179H75V713Z" />
<glyph unicode="&#xff;" glyph-name="ydieresis" horiz-adv-x="372" d="M300 563H352L192 -149H144L176 0H146L20 563H72L139 254L185 32Q210 156 300 563ZM213 626T213 659T246 692T279 659T246 626ZM88 626T88 659T121 692T154 659T121 626Z" />
<glyph unicode="&#x2013;" glyph-name="endash" horiz-adv-x="345" d="M40 342H301V302H40V342Z" />
<glyph unicode="&#x2014;" glyph-name="emdash" horiz-adv-x="574" d="M40 343H521V303H40V343Z" />
<glyph unicode="&#x2018;" glyph-name="quoteleft" horiz-adv-x="147" d="M57 520Q30 520 30 547Q30 587 85 708H117L77 520H57Z" />
<glyph unicode="&#x2019;" glyph-name="quoteright" horiz-adv-x="147" d="M90 708Q117 708 117 681Q117 641 62 520H30L70 708H90Z" />
<glyph unicode="&#x201a;" glyph-name="quotesinglbase" horiz-adv-x="147" d="M90 69Q117 69 117 42Q117 2 62 -119H30L70 69H90Z" />
<glyph unicode="&#x201c;" glyph-name="quotedblleft" horiz-adv-x="245" d="M57 520Q30 520 30 547Q30 587 85 708H115L75 520H57ZM157 520Q130 520 130 547Q130 587 185 708H215L175 520H157Z" />
<glyph unicode="&#x201d;" glyph-name="quotedblright" horiz-adv-x="245" d="M88 708Q115 708 115 681Q115 641 60 520H30L70 708H88ZM188 708Q215 708 215 681Q215 641 160 520H130L170 708H188Z" />
<glyph unicode="&#x201e;" glyph-name="quotedblbase" horiz-adv-x="245" d="M88 69Q115 69 115 42Q115 2 60 -119H30L70 69H88ZM188 69Q215 69 215 42Q215 2 160 -119H130L170 69H188Z" />
<glyph unicode="&#x2022;" glyph-name="bullet" horiz-adv-x="274" d="M72 257T72 322T137 387T202 322T137 257Z" />
<glyph unicode="&#x2039;" glyph-name="guilsinglleft" horiz-adv-x="319" d="M182 505H235L113 322L235 139H182L61 322L182 505Z" />
<glyph unicode="&#x203a;" glyph-name="guilsinglright" horiz-adv-x="308" d="M61 505H114L235 322L114 139H61L183 322L61 505Z" />
</font>
</defs>
</svg>
