<?xml version="1.0" standalone="no"?>
<!DOCTYPE svg PUBLIC "-//W3C//DTD SVG 1.1//EN" "http://www.w3.org/Graphics/SVG/1.1/DTD/svg11.dtd">
<svg xmlns="http://www.w3.org/2000/svg">
<defs >
<font id="Khand" horiz-adv-x="454" ><font-face
    font-family="Khand Bold"
    units-per-em="1000"
    panose-1="2 0 0 0 0 0 0 0 0 0"
    ascent="1050"
    descent="-479"
    alphabetic="0" />
<glyph unicode=" " glyph-name="space" horiz-adv-x="186" />
<glyph unicode="!" glyph-name="exclam" horiz-adv-x="330" d="M83 -10T83 68T166 147T250 69T167 -10ZM85 693H245L225 222H105L85 693Z" />
<glyph unicode="&quot;" glyph-name="quotedbl" horiz-adv-x="490" d="M84 777H214V499H84V777ZM270 777H400V499H270V777Z" />
<glyph unicode="#" glyph-name="numbersign" horiz-adv-x="629" d="M581 392H495L482 301H551V183H465L439 0H307L333 183H240L214 0H82L108 183H37V301H125L138 392H67V510H155L181 693H313L287 510H380L406 693H538L512 510H581V392ZM350 301L363 392H270L257 301H350Z" />
<glyph unicode="$" glyph-name="dollar" horiz-adv-x="439" d="M421 225V163Q421 36 282 5V-53H140V-3Q68 2 29 18V163Q97 134 183 134T269 183V198Q269 221 260 232T224 258L117 316Q20 370 20 468V531Q20 656 147 688V747H289V696Q349 691 381 677V533Q320 559
242 559Q202 559 188 547T174 511V496Q174 468 183 455T225 424L339 360Q421 315 421 225Z" />
<glyph unicode="%" glyph-name="percent" horiz-adv-x="721" d="M686 -6T542 -6T398 166T542 338T686 166ZM499 88T541 88T583 166T541 244T499 166ZM323 355T179 355T35 527T179 699T323 527ZM136 449T178 449T220 527T178 605T136 527ZM472 693H572L249 0H149L472 693Z" />
<glyph unicode="&amp;" glyph-name="ampersand" horiz-adv-x="504" d="M497 424V296H447V173Q447 -6 252 -6Q150 -6 102 41T53 173V258Q53 344 123 365Q55 388 55 472V532Q55 611 111 655T281 699Q366 699 408 685V545Q364 562 302 562T222 550T205 514V475Q205
447 215 436T254 424H303V490H447V424H497ZM303 177V296H254Q227 296 215 285T203 248V177Q203 152 213 139T252 126T292 139T303 177Z" />
<glyph unicode="&apos;" glyph-name="quotesingle" horiz-adv-x="310" d="M84 777H224V499H84V777Z" />
<glyph unicode="(" glyph-name="parenleft" horiz-adv-x="356" d="M257 755T225 621T193 337T225 52T303 -179H173Q127 -83 95 52T63 336T95 620T173 852H303Q257 755 225 621Z" />
<glyph unicode=")" glyph-name="parenright" horiz-adv-x="357" d="M228 755T260 621T292 337T260 52T182 -179H52Q98 -83 130 52T162 336T130 620T52 852H182Q228 755 260 621Z" />
<glyph unicode="*" glyph-name="asterisk" horiz-adv-x="556" d="M207 749V838H347V749Q347 714 340 683Q365 698 401 710L485 738L528 605L444 577Q408 566 378 564Q398 547 423 514L475 443L362 361L309 432Q289 460 277 489Q266 464 244 432L192 361L79 443L131
515Q154 545 176 564Q143 567 110 578L26 605L69 738L154 711Q182 702 214 684Q207 716 207 749Z" />
<glyph unicode="+" glyph-name="plus" horiz-adv-x="508" d="M460 397V267H323V124H183V267H46V397H183V540H323V397H460Z" />
<glyph unicode="," glyph-name="comma" horiz-adv-x="220" d="M136 145Q199 145 199 88Q199 45 164 -21T95 -133H15L61 145H136Z" />
<glyph unicode="-" glyph-name="hyphen" horiz-adv-x="312" d="M41 397H277V267H41V397Z" />
<glyph unicode="." glyph-name="period" horiz-adv-x="246" d="M38 -10T38 68T121 147T205 69T122 -10Z" />
<glyph unicode="/" glyph-name="slash" horiz-adv-x="458" d="M294 852H427L170 -179H37L294 852Z" />
<glyph unicode="0" glyph-name="zero" horiz-adv-x="469" d="M284 518Q284 543 274 555T234 568T195 556T185 518V175Q185 150 195 138T234 125T273 137T284 175V518ZM35 524Q35 608 83 655T234 703T385 655T434 524V169Q434 86 385 38T234 -10T84 37T35 169V524Z" />
<glyph unicode="1" glyph-name="one" horiz-adv-x="321" d="M276 693V0H124V511L15 431V596L146 693H276Z" />
<glyph unicode="2" glyph-name="two" horiz-adv-x="442" d="M190 698Q407 698 407 530V471Q407 374 333 319L243 243Q205 211 197 195T188 145V132H398V0H35V163Q35 262 118 326L218 412Q240 429 247 446T255 497V511Q255 534 241 546T188 559Q112 559 49 532V676Q109
698 190 698Z" />
<glyph unicode="3" glyph-name="three" horiz-adv-x="421" d="M163 699Q274 699 329 655T384 531V462Q384 419 366 391T316 355Q386 348 386 258V162Q386 82 332 38T177 -6T25 15V157Q86 131 160 131T235 179V237Q235 261 224 269T184 278H106V418H182Q233 418
233 467V514Q233 562 161 562T41 544V685Q83 699 163 699Z" />
<glyph unicode="4" glyph-name="four" horiz-adv-x="463" d="M458 248V117H393V0H252V117H10V256L202 693H393V248H458ZM258 248V533L137 248H258Z" />
<glyph unicode="5" glyph-name="five" horiz-adv-x="441" d="M258 261Q258 304 213 304Q194 304 45 295V693H386V553H194V436Q211 437 248 437Q324 437 366 399T409 284V162Q409 -6 193 -6Q112 -6 40 17V157Q123 131 190 131T258 179V261Z" />
<glyph unicode="6" glyph-name="six" horiz-adv-x="464" d="M235 327Q209 327 185 321V172Q185 147 195 135T234 122T273 134T284 172V282Q284 327 235 327ZM35 510Q35 595 88 646T257 698Q349 698 399 677V535Q343 559 264 559T185 493V447Q212 456 267 456Q348
456 391 414T434 297V169Q434 86 385 38T234 -10T84 37T35 169V510Z" />
<glyph unicode="7" glyph-name="seven" horiz-adv-x="386" d="M5 693H371V572L284 311Q253 220 253 104V0H101V117Q101 248 134 336L202 554H5V693Z" />
<glyph unicode="8" glyph-name="eight" horiz-adv-x="475" d="M440 528V458Q440 382 394 346Q440 309 440 233V165Q440 83 390 37T238 -10T85 36T35 165V233Q35 309 81 346Q35 382 35 458V528Q35 611 85 657T237 703T390 657T440 528ZM183 526V453Q183 403 237
403T292 453V526Q292 574 237 574Q207 574 195 562T183 526ZM292 167V238Q292 288 238 288T183 238V167Q183 119 237 119T292 167Z" />
<glyph unicode="9" glyph-name="nine" horiz-adv-x="464" d="M227 356Q256 356 279 365V521Q279 546 269 558T230 571T191 559T180 521V405Q180 356 227 356ZM30 524Q30 607 79 655T230 703T380 656T429 524V163Q429 83 374 39T212 -5T56 16V158Q117 132 198 132T279
180V239Q249 227 179 227T70 269T30 387V524Z" />
<glyph unicode=":" glyph-name="colon" horiz-adv-x="257" d="M38 -10T38 68T121 147T205 69T122 -10ZM38 341T38 419T121 498T205 420T122 341Z" />
<glyph unicode=";" glyph-name="semicolon" horiz-adv-x="263" d="M38 341T38 419T121 498T205 420T122 341ZM136 145Q199 145 199 88Q199 45 164 -21T95 -133H15L61 145H136Z" />
<glyph unicode="&lt;" glyph-name="less" horiz-adv-x="512" d="M459 547V412L191 332L459 252V117L33 267V397L459 547Z" />
<glyph unicode="=" glyph-name="equal" horiz-adv-x="499" d="M33 295H459V165H33V295ZM33 499H459V369H33V499Z" />
<glyph unicode="&gt;" glyph-name="greater" horiz-adv-x="507" d="M40 547L467 397V267L40 117V252L309 332L40 412V547Z" />
<glyph unicode="?" glyph-name="question" horiz-adv-x="424" d="M77 -10T77 68T160 147T244 69T161 -10ZM165 703Q380 703 380 535V451Q380 369 345 330T227 290L220 222H97L90 400H149Q197 400 216 411T235 454V519Q235 545 222 556T170 567Q84 567 26 542V684Q83
703 165 703Z" />
<glyph unicode="@" glyph-name="at" horiz-adv-x="917" d="M557 -139H464Q189 -139 107 30Q80 85 70 145T59 295T77 456T138 588Q227 710 465 710Q706 710 792 590Q834 531 850 460T867 287Q867 134 814 71T659 7T516 70Q480 53 426 53Q316 53 316 166V194Q316
241 335 269T396 314L491 349V408Q491 423 484 430T435 437T332 418V515Q389 532 460 532T567 504T603 414V182Q603 147 618 132T672 116T727 151T743 260T742 361T735 426T718 484T687 529T638 566Q570 594 465 594Q362 594 309 570Q281 558 260 544T226 506T204
462T191 408Q185 360 185 301T186 211T194 146T212 89T244 43T294 7Q360 -22 465 -22H557V-139ZM428 155T433 151T453 146T491 154V251L454 238Q438 232 433 224T428 198V167Q428 155 433 151Z" />
<glyph unicode="A" glyph-name="A" horiz-adv-x="489" d="M341 0L312 160H175L148 0H5L141 693H350L484 0H341ZM196 287H290L242 555L196 287Z" />
<glyph unicode="B" glyph-name="B" horiz-adv-x="493" d="M452 534V469Q452 372 381 350Q458 332 458 230V159Q458 0 288 0H45V693H282Q452 693 452 534ZM257 567H195V416H257Q304 416 304 459V524Q304 567 257 567ZM310 169V240Q310 283 263 283H195V126H263Q310
126 310 169Z" />
<glyph unicode="C" glyph-name="C" horiz-adv-x="412" d="M35 529Q35 609 90 653T258 698Q332 698 384 684V546Q328 563 274 563T203 551T187 514V178Q187 130 262 130T387 145V10Q333 -5 256 -5Q144 -5 90 39T35 163V529Z" />
<glyph unicode="D" glyph-name="D" horiz-adv-x="493" d="M308 533Q308 551 300 560T267 570H195V129H267Q308 129 308 175V533ZM45 693H288Q369 693 413 654T458 539V163Q458 0 297 0H45V693Z" />
<glyph unicode="E" glyph-name="E" horiz-adv-x="421" d="M45 693H396V563H195V416H369V286H195V130H396V0H45V693Z" />
<glyph unicode="F" glyph-name="F" horiz-adv-x="403" d="M45 693H388V562H197V391H373V257H197V0H45V693Z" />
<glyph unicode="G" glyph-name="G" horiz-adv-x="468" d="M35 526Q35 605 95 651T268 698Q352 698 409 679V537Q349 560 289 560T208 546T187 508V179Q187 155 202 143T246 130T292 138V372H438V37Q360 -5 253 -5T91 39T35 163V526Z" />
<glyph unicode="H" glyph-name="H" horiz-adv-x="532" d="M335 693H487V0H335V274H197V0H45V693H197V408H335V693Z" />
<glyph unicode="I" glyph-name="I" horiz-adv-x="242" d="M45 693H197V0H45V693Z" />
<glyph unicode="J" glyph-name="J" horiz-adv-x="247" d="M50 693H202V208Q202 126 195 76T167 -46L136 -149H-23L7 -46Q50 101 50 207V693Z" />
<glyph unicode="K" glyph-name="K" horiz-adv-x="486" d="M195 0H45V693H195V381L309 693H469L342 358L481 0H314L195 331V0Z" />
<glyph unicode="L" glyph-name="L" horiz-adv-x="387" d="M45 693H197V126H382V0H45V693Z" />
<glyph unicode="M" glyph-name="M" horiz-adv-x="649" d="M604 693V0H459V241Q459 345 478 446L382 176H266L170 446Q189 353 189 241V0H45V693H199L324 339L449 693H604Z" />
<glyph unicode="N" glyph-name="N" horiz-adv-x="532" d="M339 693H487V0H343Q195 378 172 456Q193 377 193 184V0H45V693H193L284 461Q342 312 362 235Q339 332 339 519V693Z" />
<glyph unicode="O" glyph-name="O" horiz-adv-x="489" d="M304 516Q304 566 245 566T185 516V177Q185 127 244 127T304 177V516ZM35 524Q35 606 88 654T244 703T400 655T454 524V169Q454 87 401 39T244 -10T88 38T35 169V524Z" />
<glyph unicode="P" glyph-name="P" horiz-adv-x="470" d="M295 521Q295 563 252 563H196V330H252Q295 330 295 372V521ZM45 693H271Q352 693 398 654T445 539V354Q445 278 399 239T271 200H196V0H45V693Z" />
<glyph unicode="Q" glyph-name="Q" horiz-adv-x="489" d="M244 -10Q141 -10 88 38T35 169V524Q35 606 88 654T244 703T400 655T454 524V169Q454 79 392 32L508 -87H331L257 -10H244ZM185 516V177Q185 127 244 127T304 177V516Q304 566 245 566T185 516Z" />
<glyph unicode="R" glyph-name="R" horiz-adv-x="482" d="M195 250V0H45V693H271Q353 693 399 654T445 540V412Q445 292 363 262L472 0H307L214 250H195ZM195 565V369H254Q277 369 286 379T295 414V527Q295 549 285 557T254 565H195Z" />
<glyph unicode="S" glyph-name="S" horiz-adv-x="439" d="M20 531Q20 611 74 654T229 698T381 677V533Q320 559 242 559Q202 559 188 547T174 511V496Q174 468 183 455T225 424L339 360Q421 315 421 225V163Q421 82 361 39T193 -5T29 18V163Q97 134 183 134T269
183V198Q269 221 260 232T224 258L117 316Q20 370 20 468V531Z" />
<glyph unicode="T" glyph-name="T" horiz-adv-x="412" d="M407 693V563H282V0H130V563H5V693H407Z" />
<glyph unicode="U" glyph-name="U" horiz-adv-x="495" d="M305 693H455V169Q455 87 403 39T248 -10T93 38T40 169V693H190V177Q190 127 247 127T305 177V693Z" />
<glyph unicode="V" glyph-name="V" horiz-adv-x="485" d="M324 693H480L348 0H139L5 693H158Q216 362 225 293T245 130Q264 309 278 398L324 693Z" />
<glyph unicode="W" glyph-name="W" horiz-adv-x="593" d="M459 693H588L496 0H362L321 274L299 465Q291 354 279 274L237 0H94L5 693H136Q174 420 178 374T185 274Q200 412 235 693H362L409 281Q414 381 426 465L459 693Z" />
<glyph unicode="X" glyph-name="X" horiz-adv-x="468" d="M301 693H463L314 345L463 0H300L236 189L168 0H5L153 345L5 693H167L236 502L301 693Z" />
<glyph unicode="Y" glyph-name="Y" horiz-adv-x="482" d="M317 0H165V215L0 693H154L187 588Q226 465 243 370Q262 467 300 590L332 693H482L317 215V0Z" />
<glyph unicode="Z" glyph-name="Z" horiz-adv-x="425" d="M24 693H401V572L177 127H405V0H20V127L238 566H24V693Z" />
<glyph unicode="[" glyph-name="bracketleft" horiz-adv-x="374" d="M209 -65H329V-183H88V869H329V752H209V-65Z" />
<glyph unicode="\" glyph-name="backslash" horiz-adv-x="487" d="M39 869H178L449 -183H309L39 869Z" />
<glyph unicode="]" glyph-name="bracketright" horiz-adv-x="374" d="M44 869H285V-183H44V-65H164V752H44V869Z" />
<glyph unicode="^" glyph-name="asciicircum" horiz-adv-x="441" d="M439 400H290L220 633L149 400H0L136 737H304L439 400Z" />
<glyph unicode="_" glyph-name="underscore" horiz-adv-x="565" d="M10 0H555L554 -120H10V0Z" />
<glyph unicode="`" glyph-name="grave" horiz-adv-x="350" d="M98 747H208L252 632H173L98 747Z" />
<glyph unicode="a" glyph-name="a" horiz-adv-x="437" d="M167 171V143Q167 109 202 109Q232 109 252 120V241L206 229Q181 222 174 211T167 171ZM50 576Q105 595 207 595T353 551T397 416V0H256V43Q227 -2 155 -2T51 32T19 143V177Q19 244 48 280T144 334L253
362V417Q252 443 238 453T187 464Q104 464 50 443V576Z" />
<glyph unicode="b" glyph-name="b" horiz-adv-x="463" d="M275 430Q275 454 245 454T196 443V139H236Q275 139 275 171V430ZM45 747H196V578Q239 593 299 593T393 562T428 467V147Q428 72 387 36T275 0H45V747Z" />
<glyph unicode="c" glyph-name="c" horiz-adv-x="376" d="M35 421Q35 595 231 595Q301 595 356 580V441Q303 457 262 457T203 447T186 408V182Q186 154 203 144T261 133T356 149V10Q301 -5 231 -5Q35 -5 35 169V421Z" />
<glyph unicode="d" glyph-name="d" horiz-adv-x="462" d="M266 456H233Q186 456 186 406V159Q186 133 216 133T266 145V456ZM265 747H417V0H270V42Q234 -4 168 -4T68 32T35 132V411Q35 495 81 542T221 590H265V747Z" />
<glyph unicode="e" glyph-name="e" horiz-adv-x="432" d="M35 168V439Q35 515 82 557T224 600Q407 600 407 439V236H180V180Q180 150 196 138T269 125T393 145V13Q323 -6 243 -6Q35 -6 35 168ZM180 351H268V437Q268 475 224 475T180 437V351Z" />
<glyph unicode="f" glyph-name="f" horiz-adv-x="295" d="M62 597Q62 766 240 766Q263 766 295 761V645Q279 647 265 647Q214 647 214 599V590H295V472H214V0H62V472H5V590H62V597Z" />
<glyph unicode="g" glyph-name="g" horiz-adv-x="456" d="M451 525H416Q408 525 394 523Q413 491 413 443V357Q413 283 367 242T228 199Q202 199 202 177Q202 164 210 160T242 155H297Q374 155 411 125T449 29V4Q449 -69 396 -109T238 -150H201Q137 -150 88 -137T15
-106V31Q43 9 93 -7T197 -24H218Q270 -24 289 -17T309 8V13Q309 33 275 33H214Q142 33 106 54T70 122V138Q70 201 126 211Q23 245 23 357V443Q23 518 71 559T218 600Q283 600 327 582Q350 659 435 659H451V525ZM263 358V442Q263 481 218 481T173 442V358Q173 319
218 319T263 358Z" />
<glyph unicode="h" glyph-name="h" horiz-adv-x="463" d="M45 747H196V580Q236 594 281 594Q423 594 423 467V0H270V430Q270 454 242 454T196 444V0H45V747Z" />
<glyph unicode="i" glyph-name="i" horiz-adv-x="241" d="M37 607T37 685T120 764T204 686T121 607ZM45 574H196V0H45V574Z" />
<glyph unicode="j" glyph-name="j" horiz-adv-x="241" d="M37 607T37 685T120 764T204 686T121 607ZM45 574H196V32Q196 -50 151 -101T17 -153Q-6 -153 -19 -149V-11Q-3 -13 4 -13Q45 -13 45 32V574Z" />
<glyph unicode="k" glyph-name="k" horiz-adv-x="434" d="M191 0H45V747H191V345L265 590H414L329 311L429 0H271L191 290V0Z" />
<glyph unicode="l" glyph-name="l" horiz-adv-x="241" d="M45 747H196V0H45V747Z" />
<glyph unicode="m" glyph-name="m" horiz-adv-x="690" d="M391 559Q456 593 518 593T615 562T650 467V0H497V430Q497 454 471 454T422 441Q423 439 423 431V0H270V430Q270 454 244 454T196 441V0H45V590H187V564Q240 593 298 593T391 559Z" />
<glyph unicode="n" glyph-name="n" horiz-adv-x="463" d="M187 564Q240 593 297 593T388 562T423 467V0H270V430Q270 454 244 454T196 441V0H45V590H187V564Z" />
<glyph unicode="o" glyph-name="o" horiz-adv-x="450" d="M267 434Q267 472 225 472T183 434V156Q183 118 225 118T267 156V434ZM35 439Q35 515 82 557T225 600T367 558T415 439V151Q415 75 368 33T225 -10T83 32T35 151V439Z" />
<glyph unicode="p" glyph-name="p" horiz-adv-x="463" d="M275 430Q275 454 247 454T196 441V139H236Q275 139 275 171V430ZM187 564Q240 593 299 593T393 562T428 467V147Q428 72 387 36T275 0H196V-149H45V590H187V564Z" />
<glyph unicode="q" glyph-name="q" horiz-adv-x="462" d="M266 456H233Q186 456 186 405V166Q186 135 219 135Q241 135 266 145V456ZM221 590H417V-149H266V13Q230 0 175 0Q35 0 35 149V411Q35 495 81 542T221 590Z" />
<glyph unicode="r" glyph-name="r" horiz-adv-x="322" d="M300 593H317V454H294Q238 454 196 434V0H45V590H187V550Q238 581 258 587T300 593Z" />
<glyph unicode="s" glyph-name="s" horiz-adv-x="388" d="M22 434Q22 514 70 554T227 595Q301 595 349 580V447Q304 462 251 462T183 453T168 424V416Q168 404 175 396T208 370L289 316Q327 291 347 261T368 186V161Q368 -5 150 -5Q74 -5 20 8V143Q67 129 124
129T199 138T218 167V176Q218 191 208 200Q196 212 93 280Q22 328 22 408V434Z" />
<glyph unicode="t" glyph-name="t" horiz-adv-x="319" d="M247 127Q278 127 304 141V7Q270 -9 215 -9Q130 -9 94 31T58 147V463H5V590H65L111 692H209V590H298V463H209V163Q209 127 247 127Z" />
<glyph unicode="u" glyph-name="u" horiz-adv-x="467" d="M271 590H422V0H280V27Q231 0 169 0T73 34T40 132V590H193V162Q193 136 222 136T271 148V590Z" />
<glyph unicode="v" glyph-name="v" horiz-adv-x="438" d="M285 590H433L309 0H133L5 590H156L190 408Q218 256 222 119Q224 240 253 405L285 590Z" />
<glyph unicode="w" glyph-name="w" horiz-adv-x="624" d="M466 590H619L528 0H359L336 211L315 386L269 0H101L5 590H162L193 195L245 590H382L437 193L466 590Z" />
<glyph unicode="x" glyph-name="x" horiz-adv-x="409" d="M239 590H403L281 298L404 0H239L205 157L169 0H5L124 298L6 590H169L205 442L239 590Z" />
<glyph unicode="y" glyph-name="y" horiz-adv-x="448" d="M293 590H438L298 -149H152L180 0H128L10 590H158Q206 335 215 262T227 119Q232 240 261 405L293 590Z" />
<glyph unicode="z" glyph-name="z" horiz-adv-x="364" d="M23 590H341V500L186 126H344V0H20V92L179 464H23V590Z" />
<glyph unicode="{" glyph-name="braceleft" horiz-adv-x="412" d="M258 684V497Q258 427 238 388T165 337Q218 327 238 291T258 186V-12Q258 -51 297 -51H342V-180H286Q211 -180 170 -132T128 -5V213Q128 272 59 272H54V401H59Q128 401 128 460V677Q128 756 169
804T286 852H342V723H297Q258 723 258 684Z" />
<glyph unicode="|" glyph-name="bar" horiz-adv-x="224" d="M61 880H161V-190H61V880Z" />
<glyph unicode="}" glyph-name="braceright" horiz-adv-x="409" d="M347 401H352V272H347Q278 272 278 213V-5Q278 -84 237 -132T120 -180H64V-51H109Q148 -51 148 -12V186Q148 255 168 291T241 337Q188 348 168 387T148 497V684Q148 723 109 723H64V852H120Q195
852 236 804T278 677V460Q278 401 347 401Z" />
<glyph unicode="~" glyph-name="asciitilde" horiz-adv-x="625" d="M591 442Q597 416 597 375T579 302T530 257Q469 231 382 260L240 308Q205 323 182 312T165 260H30Q25 289 25 328T43 400T92 445Q153 471 240 442L382 394Q417 379 440 390T457 442H591Z" />
<glyph unicode="&#xa0;" glyph-name="uni00A0" horiz-adv-x="186" />
<glyph unicode="&#xa1;" glyph-name="exclamdown" horiz-adv-x="330" d="M245 -103H85L105 368H225L245 -103ZM83 443T83 521T166 600T250 522T167 443Z" />
<glyph unicode="&#xa2;" glyph-name="cent" horiz-adv-x="379" d="M358 441Q305 457 264 457T205 447T188 408V182Q188 154 205 144T263 133T358 149V10Q327 1 293 -2V-67H153V4Q37 36 37 169V421Q37 558 159 587V655H299V592Q326 589 358 580V441Z" />
<glyph unicode="&#xa3;" glyph-name="sterling" horiz-adv-x="520" d="M462 130V0H55V127Q86 137 102 157T118 220V287H55V415H118V496Q118 596 175 647T337 698Q412 698 451 685V546Q405 561 356 561T287 543T268 484V415H405V287H268V243Q268 197 258 174T222 130H462Z" />
<glyph unicode="&#xa4;" glyph-name="currency" horiz-adv-x="460" d="M435 404V289Q435 237 416 199L464 151L379 66L322 123Q286 110 235 110T142 123L86 66L1 151L50 200Q31 237 31 289V404Q31 456 50 494L2 542L87 627L143 570Q179 583 230 583T324 570L380
627L465 542L416 493Q435 456 435 404ZM176 399V294Q176 241 233 241T290 294V399Q290 452 233 452T176 399Z" />
<glyph unicode="&#xa5;" glyph-name="yen" horiz-adv-x="562" d="M511 445V328H396L376 272H511V155H357V0H205V155H44V272H185L166 328H44V445H125L40 693H194L250 511L283 397L316 511L372 693H522L436 445H511Z" />
<glyph unicode="&#xa6;" glyph-name="brokenbar" horiz-adv-x="225" d="M61 200H161V-190H61V200ZM61 880H161V490H61V880Z" />
<glyph unicode="&#xa7;" glyph-name="section" horiz-adv-x="404" d="M182 281V254Q182 243 190 234Q201 224 306 154Q344 129 364 99T385 24V16Q385 -150 167 -150Q91 -150 37 -137V-2Q84 -16 141 -16T217 -9T235 13T224 38Q213 50 110 118Q39 166 39 246V281H182ZM32
538Q32 618 80 658T237 699Q311 699 359 684V551Q314 566 261 566T193 558T178 536T185 513T217 490L299 439Q378 390 378 309V274H232V299Q232 312 222 322Q208 336 171 358L103 403Q32 451 32 531V538Z" />
<glyph unicode="&#xa8;" glyph-name="dieresis" horiz-adv-x="350" d="M319 635T261 635T203 689T261 744T319 690ZM148 635T90 635T32 689T90 744T148 690Z" />
<glyph unicode="&#xa9;" glyph-name="copyright" horiz-adv-x="708" d="M562 258Q565 288 565 332T564 401T556 456T537 504T500 537T441 561T354 568T268 561T209 538T173 504T152 456Q143 411 143 349T145 257T159 195T193 144Q245 102 354 102Q463 102 514
144Q554 178 562 258ZM362 515Q406 515 440 505V416Q396 423 369 423T335 417T328 395V278Q328 263 334 257T371 250T440 256V168Q412 158 362 158Q226 158 226 275V398Q226 515 362 515ZM62 143T49 199T35 334T49 470T97 575Q166 671 354 671Q573 671 636 538Q673
460 673 335Q673 258 659 201T611 96Q542 0 354 0Q164 0 96 96Q62 143 49 199Z" />
<glyph unicode="&#xaa;" glyph-name="ordfeminine" horiz-adv-x="332" d="M130 421V401Q130 383 138 375T169 366T212 376V484L168 468Q130 455 130 421ZM165 744Q307 744 307 631V284H212V321Q183 289 135 289Q35 289 35 399V431Q35 476 62 501T150 547L212 568V628Q212
658 159 658T55 644V730Q101 744 165 744Z" />
<glyph unicode="&#xab;" glyph-name="guillemotleft" horiz-adv-x="640" d="M181 505H331L209 322L331 139H181L60 322L181 505ZM415 505H565L443 322L565 139H415L294 322L415 505Z" />
<glyph unicode="&#xac;" glyph-name="logicalnot" horiz-adv-x="532" d="M44 408H487V160H335V274H44V408Z" />
<glyph unicode="&#xad;" glyph-name="uni00AD" horiz-adv-x="312" d="M41 397H277V267H41V397Z" />
<glyph unicode="&#xae;" glyph-name="registered" horiz-adv-x="606" d="M95 647T146 712T330 777T514 714T564 528Q564 414 519 351Q468 279 330 279Q191 279 140 350Q95 413 95 530ZM219 362T251 353T329 343T408 352T457 376T483 417T495 467T497 526T496 581T490
625T474 663T445 690Q412 714 330 714Q244 714 200 680Q183 667 174 640T164 590T162 529T164 466T175 417T201 376ZM241 671H326Q429 671 429 581Q429 528 396 505L441 389H370L338 488H307V389H241V671ZM307 542H320Q346 542 355 549T364 580T355 610T325 617H307V542Z"
/>
<glyph unicode="&#xaf;" glyph-name="overscore" horiz-adv-x="350" d="M41 728H308V651H41V728Z" />
<glyph unicode="&#xb0;" glyph-name="degree" horiz-adv-x="440" d="M273 605T273 674T219 743Q190 743 178 726T166 674T178 622T219 605Q273 605 273 674ZM42 590T42 674T85 807T219 856T353 807T397 674T354 541T220 492T86 541Z" />
<glyph unicode="&#xb1;" glyph-name="plusminus" horiz-adv-x="498" d="M460 130L461 0H47L46 130H460ZM183 174V267H46V397H183V490H323V397H460V267H323V174H183Z" />
<glyph unicode="&#xb2;" glyph-name="twosuperior" horiz-adv-x="300" d="M155 744Q276 744 276 634V586Q276 533 233 501L162 448Q141 433 136 425T131 397V376H274V289H35V405Q35 466 82 500L160 556Q174 567 177 575T181 603V631Q181 658 151 658Q97 658 44
645V732Q80 744 155 744Z" />
<glyph unicode="&#xb3;" glyph-name="threesuperior" horiz-adv-x="290" d="M136 744Q257 744 257 634V584Q257 536 225 516Q257 495 257 445V394Q257 284 136 284Q61 284 25 296V383Q78 370 132 370Q162 370 162 397V445Q162 458 157 464T135 471H85V558H135Q162
558 162 584V631Q162 658 132 658Q78 658 25 645V732Q61 744 136 744Z" />
<glyph unicode="&#xb4;" glyph-name="acute" horiz-adv-x="350" d="M142 747H252L177 632H98L142 747Z" />
<glyph unicode="&#xb5;" glyph-name="uni00B5" horiz-adv-x="465" d="M278 27Q232 1 191 1V-148H38V590H191V139Q197 137 222 137T269 148V590H420V0H278V27Z" />
<glyph unicode="&#xb6;" glyph-name="paragraph" horiz-adv-x="463" d="M231 693H408V0H256V388H231Q150 388 104 427T57 541T103 654T231 693Z" />
<glyph unicode="&#xb7;" glyph-name="middot" horiz-adv-x="287" d="M67 271T67 346T142 421T217 346T142 271Z" />
<glyph unicode="&#xb8;" glyph-name="cedilla" horiz-adv-x="350" d="M214 -41T232 -57T251 -109T224 -168T161 -191T98 -185V-119Q110 -124 137 -124T164 -102T132 -77H121L139 6H203L193 -39Q214 -41 232 -57Z" />
<glyph unicode="&#xb9;" glyph-name="onesuperior" horiz-adv-x="213" d="M178 737V288H84V632L8 578V683L84 737H178Z" />
<glyph unicode="&#xba;" glyph-name="ordmasculine" horiz-adv-x="320" d="M211 631Q211 658 174 658T137 631V399Q137 372 174 372T211 399V631ZM42 629Q42 746 174 746T306 629V401Q306 284 174 284T42 401V629Z" />
<glyph unicode="&#xbb;" glyph-name="guillemotright" horiz-adv-x="637" d="M60 505H210L331 322L210 139H60L182 322L60 505ZM294 505H444L565 322L444 139H294L416 322L294 505Z" />
<glyph unicode="&#xbc;" glyph-name="onequarter" horiz-adv-x="829" d="M540 693H635L232 0H137L540 693ZM643 160V368L571 160H643ZM737 449V160H779V76H737V0H643V76H484V165L590 449H737ZM210 693V244H116V588L40 534V639L116 693H210Z" />
<glyph unicode="&#xbd;" glyph-name="onehalf" horiz-adv-x="841" d="M540 693H635L232 0H137L540 693ZM210 693V244H116V588L40 534V639L116 693H210ZM653 455Q774 455 774 345V297Q774 244 731 212L660 159Q639 144 634 136T629 108V87H772V0H533V116Q533 177
580 211L658 267Q672 278 675 286T679 314V342Q679 369 649 369Q595 369 542 356V443Q578 455 653 455Z" />
<glyph unicode="&#xbe;" glyph-name="threequarters" horiz-adv-x="851" d="M151 699Q272 699 272 589V539Q272 491 240 471Q272 450 272 400V349Q272 239 151 239Q76 239 40 251V338Q93 325 147 325Q177 325 177 352V400Q177 413 172 419T150 426H100V513H150Q177
513 177 539V586Q177 613 147 613Q93 613 40 600V687Q76 699 151 699ZM562 693H657L254 0H159L562 693ZM665 160V368L593 160H665ZM759 449V160H801V76H759V0H665V76H506V165L612 449H759Z" />
<glyph unicode="&#xbf;" glyph-name="questiondown" horiz-adv-x="424" d="M329 601T329 523T246 444T162 522T245 601ZM241 -112Q26 -112 26 56V140Q26 222 61 261T179 301L186 369H309L316 191H257Q209 191 190 180T171 137V72Q171 46 184 35T236 24Q322 24
380 49V-93Q323 -112 241 -112Z" />
<glyph unicode="&#xc0;" glyph-name="Agrave" horiz-adv-x="489" d="M341 0L312 160H175L148 0H5L141 693H350L484 0H341ZM196 287H290L242 555L196 287ZM282 732H203L128 847H238L282 732Z" />
<glyph unicode="&#xc1;" glyph-name="Aacute" horiz-adv-x="489" d="M341 0L312 160H175L148 0H5L141 693H350L484 0H341ZM196 287H290L242 555L196 287ZM352 847L277 732H198L242 847H352Z" />
<glyph unicode="&#xc2;" glyph-name="Acircumflex" horiz-adv-x="489" d="M341 0L312 160H175L148 0H5L141 693H350L484 0H341ZM196 287H290L242 555L196 287ZM250 786L209 732H136L196 847H303L363 732H290L250 786Z" />
<glyph unicode="&#xc3;" glyph-name="Atilde" horiz-adv-x="489" d="M341 0L312 160H175L148 0H5L141 693H350L484 0H341ZM196 287H290L242 555L196 287ZM171 736V733H92V735Q94 843 181 843Q211 843 243 824T285 804Q306 804 306 840V844H385V839Q384 790 362
762T296 734Q269 734 235 753T192 773Q171 773 171 736Z" />
<glyph unicode="&#xc4;" glyph-name="Adieresis" horiz-adv-x="489" d="M341 0L312 160H175L148 0H5L141 693H350L484 0H341ZM196 287H290L242 555L196 287ZM215 735T157 735T99 789T157 844T215 790ZM386 735T328 735T270 789T328 844T386 790Z" />
<glyph unicode="&#xc5;" glyph-name="Aring" horiz-adv-x="489" d="M341 0L312 160H175L148 0H5L141 693H350L484 0H341ZM196 287H290L242 555L196 287ZM280 709T242 709T183 732T161 789T182 845T242 868T301 846T323 789T302 732ZM255 817T242 817T222 809T214
789Q214 760 242 760T270 789Q270 801 263 809Z" />
<glyph unicode="&#xc6;" glyph-name="AE" horiz-adv-x="725" d="M696 563H495V416H669V286H495V130H696V0H355V160H202L145 0H0L266 693H696V563ZM355 287V589L247 287H355Z" />
<glyph unicode="&#xc7;" glyph-name="Ccedilla" horiz-adv-x="412" d="M276 -41T294 -57T313 -109T286 -168T223 -191T160 -185V-119Q172 -124 199 -124T226 -102T194 -77H183L199 -2Q35 20 35 163V529Q35 609 90 653T258 698Q332 698 384 684V546Q328 563 274
563T203 551T187 514V178Q187 130 262 130T387 145V10Q340 -3 263 -5L255 -39Q276 -41 294 -57Z" />
<glyph unicode="&#xc8;" glyph-name="Egrave" horiz-adv-x="421" d="M108 847H218L262 732H183L108 847ZM45 693H396V563H195V416H369V286H195V130H396V0H45V693Z" />
<glyph unicode="&#xc9;" glyph-name="Eacute" horiz-adv-x="421" d="M45 693H396V563H195V416H369V286H195V130H396V0H45V693ZM221 847H331L256 732H177L221 847Z" />
<glyph unicode="&#xca;" glyph-name="Ecircumflex" horiz-adv-x="421" d="M396 563H195V416H369V286H195V130H396V0H45V693H396V563ZM214 786L173 732H100L160 847H267L327 732H254L214 786Z" />
<glyph unicode="&#xcb;" glyph-name="Edieresis" horiz-adv-x="421" d="M45 693H396V563H195V416H369V286H195V130H396V0H45V693ZM365 735T307 735T249 789T307 844T365 790ZM194 735T136 735T78 789T136 844T194 790Z" />
<glyph unicode="&#xcc;" glyph-name="Igrave" horiz-adv-x="421" d="M105 847H215L259 732H180L105 847ZM45 693H396V563H195V416H369V286H195V130H396V0H45V693Z" />
<glyph unicode="&#xcd;" glyph-name="Iacute" horiz-adv-x="421" d="M45 693H396V563H195V416H369V286H195V130H396V0H45V693ZM222 847H332L257 732H178L222 847Z" />
<glyph unicode="&#xce;" glyph-name="Icircumflex" horiz-adv-x="242" d="M45 0V693H197V0H45ZM121 786L80 732H7L67 847H174L234 732H161L121 786Z" />
<glyph unicode="&#xcf;" glyph-name="Idieresis" horiz-adv-x="242" d="M264 735T206 735T148 789T206 844T264 790ZM93 735T35 735T-23 789T35 844T93 790ZM45 693H197V0H45V693Z" />
<glyph unicode="&#xd0;" glyph-name="Eth" horiz-adv-x="499" d="M55 693H298Q379 693 423 654T468 539V163Q468 0 307 0H55V279H-9V403H55V693ZM318 175V533Q318 551 310 560T277 570H205V403H261V279H205V129H277Q318 129 318 175Z" />
<glyph unicode="&#xd1;" glyph-name="Ntilde" horiz-adv-x="532" d="M339 693H487V0H343Q195 378 172 456Q193 377 193 184V0H45V693H193L284 461Q342 312 362 235Q339 332 339 519V693ZM204 736V733H125V735Q127 843 214 843Q244 843 277 824T318 804Q339 804
339 840V844H418V839Q417 790 395 762T329 734Q302 734 268 753T225 773Q204 773 204 736Z" />
<glyph unicode="&#xd2;" glyph-name="Ograve" horiz-adv-x="489" d="M128 847H238L282 732H203L128 847ZM304 516Q304 566 245 566T185 516V177Q185 127 244 127T304 177V516ZM35 524Q35 606 88 654T244 703T400 655T454 524V169Q454 87 401 39T244 -10T88 38T35
169V524Z" />
<glyph unicode="&#xd3;" glyph-name="Oacute" horiz-adv-x="489" d="M304 516Q304 566 245 566T185 516V177Q185 127 244 127T304 177V516ZM35 524Q35 606 88 654T244 703T400 655T454 524V169Q454 87 401 39T244 -10T88 38T35 169V524ZM257 847H367L292 732H213L257
847Z" />
<glyph unicode="&#xd4;" glyph-name="Ocircumflex" horiz-adv-x="489" d="M35 169V524Q35 606 88 654T244 703T400 655T454 524V169Q454 87 401 39T244 -10T88 38T35 169ZM304 177V516Q304 566 245 566T185 516V177Q185 127 244 127T304 177ZM247 786L206 732H133L193
847H300L360 732H287L247 786Z" />
<glyph unicode="&#xd5;" glyph-name="Otilde" horiz-adv-x="489" d="M309 844H388V839Q387 790 365 762T299 734Q272 734 238 753T195 773Q174 773 174 736V733H95V735Q97 843 184 843Q213 843 246 824T288 804Q309 804 309 840V844ZM304 516Q304 566 245 566T185
516V177Q185 127 244 127T304 177V516ZM35 524Q35 606 88 654T244 703T400 655T454 524V169Q454 87 401 39T244 -10T88 38T35 169V524Z" />
<glyph unicode="&#xd6;" glyph-name="Odieresis" horiz-adv-x="489" d="M304 516Q304 566 245 566T185 516V177Q185 127 244 127T304 177V516ZM35 524Q35 606 88 654T244 703T400 655T454 524V169Q454 87 401 39T244 -10T88 38T35 169V524ZM388 735T330 735T272
789T330 844T388 790ZM217 735T159 735T101 789T159 844T217 790Z" />
<glyph unicode="&#xd7;" glyph-name="multiply" horiz-adv-x="493" d="M449 223L357 131L246 243L134 131L42 223L154 335L44 444L136 536L246 427L355 536L447 444L338 335L449 223Z" />
<glyph unicode="&#xd8;" glyph-name="Oslash" horiz-adv-x="489" d="M454 524V169Q454 87 401 39T244 -10Q175 -10 126 13L120 0H30L63 67Q35 108 35 169V524Q35 606 88 654T244 703Q314 703 362 680L369 693H459L426 625Q454 584 454 524ZM185 516V317L296 545Q283
566 244 566Q185 566 185 516ZM304 177V376L192 148Q207 127 244 127Q304 127 304 177Z" />
<glyph unicode="&#xd9;" glyph-name="Ugrave" horiz-adv-x="495" d="M134 847H244L288 732H209L134 847ZM305 693H455V169Q455 87 403 39T248 -10T93 38T40 169V693H190V177Q190 127 247 127T305 177V693Z" />
<glyph unicode="&#xda;" glyph-name="Uacute" horiz-adv-x="495" d="M305 693H455V169Q455 87 403 39T248 -10T93 38T40 169V693H190V177Q190 127 247 127T305 177V693ZM251 847H361L286 732H207L251 847Z" />
<glyph unicode="&#xdb;" glyph-name="Ucircumflex" horiz-adv-x="495" d="M305 693H455V169Q455 87 403 39T248 -10T93 38T40 169V693H190V177Q190 127 247 127T305 177V693ZM248 786L207 732H134L194 847H301L361 732H288L248 786Z" />
<glyph unicode="&#xdc;" glyph-name="Udieresis" horiz-adv-x="495" d="M305 693H455V169Q455 87 403 39T248 -10T93 38T40 169V693H190V177Q190 127 247 127T305 177V693ZM390 735T332 735T274 789T332 844T390 790ZM219 735T161 735T103 789T161 844T219 790Z" />
<glyph unicode="&#xdd;" glyph-name="Yacute" horiz-adv-x="482" d="M244 848H354L279 733H200L244 848ZM317 0H165V215L0 693H154L187 588Q226 465 243 370Q262 467 300 590L332 693H482L317 215V0Z" />
<glyph unicode="&#xde;" glyph-name="Thorn" horiz-adv-x="453" d="M199 590H269Q350 590 396 551T443 436V258Q443 182 397 143T269 104H199V0H55V693H199V590ZM299 274V420Q299 462 256 462H199V232H256Q299 232 299 274Z" />
<glyph unicode="&#xdf;" glyph-name="germandbls" horiz-adv-x="569" d="M45 522Q45 621 99 674T252 727T409 679T467 547Q467 500 443 449T419 388V377Q419 358 447 335Q453 330 466 320T486 304Q552 248 552 186V153Q552 -3 351 -3Q302 -3 240 9V142Q288 127
333 127T393 135T408 166V174Q408 188 398 198T380 215T367 226Q352 240 337 250Q266 309 266 360V380Q266 410 292 462T318 539Q318 595 256 595Q220 595 203 575T186 509V0H45V522Z" />
<glyph unicode="&#xe0;" glyph-name="agrave" horiz-adv-x="437" d="M98 747H208L252 632H173L98 747ZM167 171V143Q167 109 202 109Q232 109 252 120V241L206 229Q181 222 174 211T167 171ZM50 576Q105 595 207 595T353 551T397 416V0H256V43Q227 -2 155 -2T51
32T19 143V177Q19 244 48 280T144 334L253 362V417Q252 443 238 453T187 464Q104 464 50 443V576Z" />
<glyph unicode="&#xe1;" glyph-name="aacute" horiz-adv-x="437" d="M210 747H320L245 632H166L210 747ZM167 171V143Q167 109 202 109Q232 109 252 120V241L206 229Q181 222 174 211T167 171ZM50 576Q105 595 207 595T353 551T397 416V0H256V43Q227 -2 155 -2T51
32T19 143V177Q19 244 48 280T144 334L253 362V417Q252 443 238 453T187 464Q104 464 50 443V576Z" />
<glyph unicode="&#xe2;" glyph-name="acircumflex" horiz-adv-x="437" d="M50 576Q105 595 207 595T353 551T397 416V0H256V43Q227 -2 155 -2T51 32T19 143V177Q19 244 48 280T144 334L253 362V417Q252 443 238 453T187 464Q104 464 50 443V576ZM167 171V143Q167
109 202 109Q232 109 252 120V241L206 229Q181 222 174 211T167 171ZM215 686L174 632H101L161 747H268L328 632H255L215 686Z" />
<glyph unicode="&#xe3;" glyph-name="atilde" horiz-adv-x="437" d="M279 744H358V739Q357 690 335 662T269 634Q242 634 208 653T165 673Q144 673 144 636V633H65V635Q67 743 154 743Q184 743 217 724T258 704Q279 704 279 740V744ZM167 171V143Q167 109 202
109Q232 109 252 120V241L206 229Q181 222 174 211T167 171ZM50 576Q105 595 207 595T353 551T397 416V0H256V43Q227 -2 155 -2T51 32T19 143V177Q19 244 48 280T144 334L253 362V417Q252 443 238 453T187 464Q104 464 50 443V576Z" />
<glyph unicode="&#xe4;" glyph-name="adieresis" horiz-adv-x="437" d="M354 635T296 635T238 689T296 744T354 690ZM183 635T125 635T67 689T125 744T183 690ZM167 171V143Q167 109 202 109Q232 109 252 120V241L206 229Q181 222 174 211T167 171ZM50 576Q105
595 207 595T353 551T397 416V0H256V43Q227 -2 155 -2T51 32T19 143V177Q19 244 48 280T144 334L253 362V417Q252 443 238 453T187 464Q104 464 50 443V576Z" />
<glyph unicode="&#xe5;" glyph-name="aring" horiz-adv-x="437" d="M237 689Q237 701 230 709T209 717T189 709T181 689Q181 660 209 660T237 689ZM128 655T128 689T149 745T209 768T268 746T290 689T269 632T209 609T150 632ZM167 171V143Q167 109 202 109Q232
109 252 120V241L206 229Q181 222 174 211T167 171ZM50 576Q105 595 207 595T353 551T397 416V0H256V43Q227 -2 155 -2T51 32T19 143V177Q19 244 48 280T144 334L253 362V417Q252 443 238 453T187 464Q104 464 50 443V576Z" />
<glyph unicode="&#xe6;" glyph-name="ae" horiz-adv-x="655" d="M484 437Q484 475 439 475T394 437V351H484V437ZM167 171V143Q167 109 202 109Q231 109 255 121V243L206 230Q181 223 174 212T167 171ZM440 600Q623 600 623 439V236H395V180Q395 148 413 137T487
125T609 145V13Q539 -6 455 -6T320 25Q274 -4 175 -4Q24 -4 24 142V177Q24 244 51 279T144 335L252 369L251 426Q251 464 187 464Q107 464 50 442V574Q110 595 192 595T318 572Q365 600 440 600Z" />
<glyph unicode="&#xe7;" glyph-name="ccedilla" horiz-adv-x="376" d="M356 441Q303 457 262 457T203 447T186 408V182Q186 154 203 144T261 133T356 149V10Q302 -4 242 -5L234 -39Q255 -41 273 -57T292 -109T265 -168T202 -191T139 -185V-119Q151 -124 178 -124T205
-102T173 -77H162L178 -1Q35 20 35 169V421Q35 595 231 595Q301 595 356 580V441Z" />
<glyph unicode="&#xe8;" glyph-name="egrave" horiz-adv-x="432" d="M35 168V439Q35 515 82 557T224 600Q407 600 407 439V236H180V180Q180 150 196 138T269 125T393 145V13Q323 -6 243 -6Q35 -6 35 168ZM180 351H268V437Q268 475 224 475T180 437V351ZM262 632H183L108
747H218L262 632Z" />
<glyph unicode="&#xe9;" glyph-name="eacute" horiz-adv-x="432" d="M35 168V439Q35 515 82 557T224 600Q407 600 407 439V236H180V180Q180 150 196 138T269 125T393 145V13Q323 -6 243 -6Q35 -6 35 168ZM180 351H268V437Q268 475 224 475T180 437V351ZM334 747L259
632H180L224 747H334Z" />
<glyph unicode="&#xea;" glyph-name="ecircumflex" horiz-adv-x="432" d="M35 168V439Q35 515 82 557T224 600Q407 600 407 439V236H180V180Q180 150 196 138T269 125T393 145V13Q323 -6 243 -6Q35 -6 35 168ZM180 351H268V437Q268 475 224 475T180 437V351ZM227
686L186 632H113L173 747H280L340 632H267L227 686Z" />
<glyph unicode="&#xeb;" glyph-name="edieresis" horiz-adv-x="432" d="M35 168V439Q35 515 82 557T224 600Q407 600 407 439V236H180V180Q180 150 196 138T269 125T393 145V13Q323 -6 243 -6Q35 -6 35 168ZM180 351H268V437Q268 475 224 475T180 437V351ZM197
635T139 635T81 689T139 744T197 690ZM368 635T310 635T252 689T310 744T368 690Z" />
<glyph unicode="&#xec;" glyph-name="igrave" horiz-adv-x="241" d="M-2 747H108L152 632H73L-2 747ZM45 574H196V0H45V574Z" />
<glyph unicode="&#xed;" glyph-name="iacute" horiz-adv-x="241" d="M122 747H232L157 632H78L122 747ZM45 574H196V0H45V574Z" />
<glyph unicode="&#xee;" glyph-name="icircumflex" horiz-adv-x="241" d="M45 0V574H196V0H45ZM122 686L81 632H8L68 747H175L235 632H162L122 686Z" />
<glyph unicode="&#xef;" glyph-name="idieresis" horiz-adv-x="241" d="M264 635T206 635T148 689T206 744T264 690ZM93 635T35 635T-23 689T35 744T93 690ZM45 574H196V0H45V574Z" />
<glyph unicode="&#xf0;" glyph-name="eth" horiz-adv-x="453" d="M418 310V160Q418 81 370 38T229 -5T88 37T40 159V319Q40 392 74 428T181 465Q232 465 257 427Q241 482 204 546L97 501V575L165 604Q134 647 94 693H263Q285 666 292 657L391 699V624L331 599Q418
454 418 310ZM274 163V346Q255 353 230 353T194 345T184 314V165Q184 125 229 125T274 163Z" />
<glyph unicode="&#xf1;" glyph-name="ntilde" horiz-adv-x="463" d="M298 744H377V739Q376 690 354 662T288 634Q261 634 227 653T184 673Q163 673 163 636V633H84V635Q86 743 173 743Q202 743 235 724T277 704Q298 704 298 740V744ZM187 564Q240 593 297 593T388
562T423 467V0H270V430Q270 454 244 454T196 441V0H45V590H187V564Z" />
<glyph unicode="&#xf2;" glyph-name="ograve" horiz-adv-x="450" d="M118 747H228L272 632H193L118 747ZM267 434Q267 472 225 472T183 434V156Q183 118 225 118T267 156V434ZM35 439Q35 515 82 557T225 600T367 558T415 439V151Q415 75 368 33T225 -10T83 32T35
151V439Z" />
<glyph unicode="&#xf3;" glyph-name="oacute" horiz-adv-x="450" d="M267 434Q267 472 225 472T183 434V156Q183 118 225 118T267 156V434ZM35 439Q35 515 82 557T225 600T367 558T415 439V151Q415 75 368 33T225 -10T83 32T35 151V439ZM233 747H343L268 632H189L233
747Z" />
<glyph unicode="&#xf4;" glyph-name="ocircumflex" horiz-adv-x="450" d="M35 151V439Q35 515 82 557T225 600T367 558T415 439V151Q415 75 368 33T225 -10T83 32T35 151ZM267 156V434Q267 472 225 472T183 434V156Q183 118 225 118T267 156ZM228 686L187 632H114L174
747H281L341 632H268L228 686Z" />
<glyph unicode="&#xf5;" glyph-name="otilde" horiz-adv-x="450" d="M293 744H372V739Q371 690 349 662T283 634Q256 634 222 653T179 673Q158 673 158 636V633H79V635Q81 743 168 743Q198 743 231 724T272 704Q293 704 293 740V744ZM267 434Q267 472 225 472T183
434V156Q183 118 225 118T267 156V434ZM35 439Q35 515 82 557T225 600T367 558T415 439V151Q415 75 368 33T225 -10T83 32T35 151V439Z" />
<glyph unicode="&#xf6;" glyph-name="odieresis" horiz-adv-x="450" d="M267 434Q267 472 225 472T183 434V156Q183 118 225 118T267 156V434ZM35 439Q35 515 82 557T225 600T367 558T415 439V151Q415 75 368 33T225 -10T83 32T35 151V439ZM372 635T314 635T256
689T314 744T372 690ZM201 635T143 635T85 689T143 744T201 690Z" />
<glyph unicode="&#xf7;" glyph-name="divide" horiz-adv-x="498" d="M172 428T172 503T247 578T322 503T247 428ZM172 85T172 160T247 235T322 160T248 85Q172 85 172 160ZM41 396H455V266H41V396Z" />
<glyph unicode="&#xf8;" glyph-name="oslash" horiz-adv-x="450" d="M415 439V151Q415 75 368 33T231 -10T93 24L79 0H15L55 66Q35 100 35 151V439Q35 515 82 557T219 600T357 566L371 590H435L395 524Q415 490 415 439ZM183 434V278L267 418V434Q267 472 225
472T183 434ZM267 156V312L183 172V156Q183 118 225 118T267 156Z" />
<glyph unicode="&#xf9;" glyph-name="ugrave" horiz-adv-x="467" d="M108 747H218L262 632H183L108 747ZM271 590H422V0H280V27Q231 0 169 0T73 34T40 132V590H193V162Q193 136 222 136T271 148V590Z" />
<glyph unicode="&#xfa;" glyph-name="uacute" horiz-adv-x="467" d="M271 590H422V0H280V27Q231 0 169 0T73 34T40 132V590H193V162Q193 136 222 136T271 148V590ZM239 747H349L274 632H195L239 747Z" />
<glyph unicode="&#xfb;" glyph-name="ucircumflex" horiz-adv-x="467" d="M271 590H422V0H280V27Q231 0 169 0T73 34T40 132V590H193V162Q193 136 222 136T271 148V590ZM235 686L194 632H121L181 747H288L348 632H275L235 686Z" />
<glyph unicode="&#xfc;" glyph-name="udieresis" horiz-adv-x="467" d="M271 590H422V0H280V27Q231 0 169 0T73 34T40 132V590H193V162Q193 136 222 136T271 148V590ZM375 635T317 635T259 689T317 744T375 690ZM204 635T146 635T88 689T146 744T204 690Z" />
<glyph unicode="&#xfd;" glyph-name="yacute" horiz-adv-x="448" d="M222 747H332L257 632H178L222 747ZM293 590H438L298 -149H152L180 0H128L10 590H158Q206 335 215 262T227 119Q232 240 261 405L293 590Z" />
<glyph unicode="&#xfe;" glyph-name="thorn" horiz-adv-x="463" d="M275 432Q275 456 247 456T196 443V135H236Q275 135 275 167V432ZM45 747H196V568Q241 593 300 593T393 562T428 467V147Q428 72 387 36T275 0H196V-157H45V747Z" />
<glyph unicode="&#xff;" glyph-name="ydieresis" horiz-adv-x="448" d="M293 590H438L298 -149H152L180 0H128L10 590H158Q206 335 215 262T227 119Q232 240 261 405L293 590ZM368 635T310 635T252 689T310 744T368 690ZM197 635T139 635T81 689T139 744T197 690Z" />
<glyph unicode="&#x2013;" glyph-name="endash" horiz-adv-x="625" d="M41 397H567V267H41V397Z" />
<glyph unicode="&#x2014;" glyph-name="emdash" horiz-adv-x="865" d="M41 397H817V267H41V397Z" />
<glyph unicode="&#x2018;" glyph-name="quoteleft" horiz-adv-x="205" d="M86 485Q25 485 25 542Q25 580 54 635T116 733H180L138 485H86Z" />
<glyph unicode="&#x2019;" glyph-name="quoteright" horiz-adv-x="205" d="M119 733Q180 733 180 676Q180 638 151 583T89 485H25L67 733H119Z" />
<glyph unicode="&#x201a;" glyph-name="quotesinglbase" horiz-adv-x="205" d="M119 145Q180 145 180 88Q180 50 151 -5T89 -103H25L67 145H119Z" />
<glyph unicode="&#x201c;" glyph-name="quotedblleft" horiz-adv-x="369" d="M86 485Q25 485 25 542Q25 580 54 635T116 733H174L132 485H86ZM256 485Q195 485 195 542Q195 580 224 635T286 733H344L302 485H256Z" />
<glyph unicode="&#x201d;" glyph-name="quotedblright" horiz-adv-x="369" d="M113 733Q174 733 174 676Q174 638 145 583T83 485H25L67 733H113ZM283 733Q344 733 344 676Q344 638 315 583T253 485H195L237 733H283Z" />
<glyph unicode="&#x201e;" glyph-name="quotedblbase" horiz-adv-x="369" d="M113 145Q174 145 174 88Q174 50 145 -5T83 -103H25L67 145H113ZM283 145Q344 145 344 88Q344 50 315 -5T253 -103H195L237 145H283Z" />
<glyph unicode="&#x2022;" glyph-name="bullet" horiz-adv-x="252" d="M24 238T24 338T124 438T224 338T124 238Z" />
<glyph unicode="&#x2039;" glyph-name="guilsinglleft" horiz-adv-x="504" d="M235 505H385L263 322L385 139H235L114 322L235 505Z" />
<glyph unicode="&#x203a;" glyph-name="guilsinglright" horiz-adv-x="472" d="M114 505H264L385 322L264 139H114L236 322L114 505Z" />
</font>
</defs>
</svg>
